<?xml version="1.0" standalone="no"?>
<!DOCTYPE svg PUBLIC "-//W3C//DTD SVG 1.1//EN" "http://www.w3.org/Graphics/SVG/1.1/DTD/svg11.dtd" >
<svg xmlns="http://www.w3.org/2000/svg">
<metadata></metadata>
<defs>
<font id="star_trek_future_regular" horiz-adv-x="612" >
<font-face units-per-em="2048" ascent="1638" descent="-410" />
<missing-glyph horiz-adv-x="1024" />
<glyph horiz-adv-x="2048" />
<glyph horiz-adv-x="2048" />
<glyph unicode="&#xd;" horiz-adv-x="1024" />
<glyph unicode=" "  horiz-adv-x="1024" />
<glyph unicode="&#x09;" horiz-adv-x="1024" />
<glyph unicode="&#xa0;" horiz-adv-x="1024" />
<glyph unicode="!" horiz-adv-x="333" d="M16 174h205v-12l96 -96v-82q0 -20 -1 -48t-1 -51l-188 -2l-96 97h-13zM16 410l2 890h181l18 -18v-8l96 -96v-429.5t4 -435.5h-192l-96 97h-13zM37 154l2 -154l160 2q0 43 1 80t1 72h-164zM37 430h164q-4 217 -4 428v422h-158z" />
<glyph unicode="&#x22;" horiz-adv-x="606" d="M16 752v548h183l18 -18v-8l76 -80q2 47 3 68.5t5 37.5h193v-12l96 -96v-537h-189l-88 86q0 -23 1 -43t1 -43h-190l-96 97h-13zM36 1206.5q-1 -30.5 1 -59.5v2v-377h162q-2 188 -2 313v195h-160q0 -43 -1 -73.5zM313 772h160v334v174h-154q-2 -12 -3 -33.5t-2 -74 t-1 -146.5v-254z" />
<glyph unicode="#" horiz-adv-x="1202" d="M16 332l2 198l152 2v132h-43l-96 96h-13l2 201h150q0 41 1 82.5t1 82.5v174h199v-12l88 -88v100h198v-12l97 -96v-234l65 -2v-12l96 -96q0 -57 1.5 -103.5t1.5 -80.5h-76q-16 0 -35 1t-41 -1h-8v-132h59v-12l96 -96v-191h-43q-6 0 -14 1.5t-18 1.5h-82v-351l-189 -2 l-96 97h-2v-95l-188 -2l-97 97h-12l-2 256h-45l-96 96h-13zM37 352h153l3 -352l159 2v350h125l2 -352l160 2v350h96q23 0 32 -1t30 -1v162h-158q2 70 2 136.5v131.5h23q45 2 73.5 0t63.5 0l-2 158l-160 2q0 86 -1 170t-1 170h-158l-2 -340h-125q0 86 -1 170t-1 170h-157 l-3 -340h-149v-2l-2 -158h151v-268l-151 -2zM352 512q2 70 2 136.5v131.5h123v-268h-125zM799 938l14 -2v2h-14z" />
<glyph unicode="$" horiz-adv-x="622" d="M20 274v91l48 22l-33 35q-4 -2 -6 -2t-6 -2l2 678q-6 72 22.5 123t69.5 79h49q0 18 1 37t1 39v86h180l19 -18v-8l96 -97q-2 -16 -3 -30.5t-1 -32.5q4 -4 6 -8t6 -9l66 -65q39 -39 53 -86t14 -100l-4 -156l-35 -16l35 -35l6 -721q-10 -84 -48 -131t-99 -62q-2 -27 -1 -49 t1 -51v-72h-187l-96 97h-12v120l-47 47h-8q-43 39 -67 97.5t-19 105.5q0 16 -1.5 44t-1.5 50zM41 352l2 -174q-6 -41 14.5 -93t59.5 -87h67v-168h158q0 43 -1 86t1 84q59 12 98 57t49 125l-6 697l-282 -138l-2 367h131l2 -221l151 74l4 147q0 51 -12 94t-47 78l-86 -2 q0 66 1 99.5t3 62.5h-158l-2 -162h-61q-35 -23 -60.5 -69t-19.5 -111l-2 -649l289 133l-2 -400h-129l-2 244zM270 391l39 -39v25v31q-10 -4 -19 -8.5t-20 -8.5zM315 856q0 -10 1 -18.5t1 -18.5q6 4 13.5 7t15.5 8l-24 24z" />
<glyph unicode="%" horiz-adv-x="1370" d="M14 1135l2 4v22q0 33 7.5 78t52.5 68h313q35 0 54.5 -15.5t29.5 -38.5l78 -77q25 -25 29 -68t4 -78l2 -225l159 500l201 2q-2 -4 -2 -6.5t-2 -6.5l98 -96q-4 -16 -12 -40.5t-16 -47.5q-16 -47 -45 -139t-76 -256q-10 -29 -17.5 -52.5t-13.5 -46.5h297q33 0 51.5 -13 t28.5 -36l82 -80q25 -25 28 -67.5t3 -79.5l4 -369q2 -47 -11.5 -68.5t-60.5 -21.5h-315q-25 0 -41 17l-82 82q-39 10 -46 51t-10 90q0 2 -1 6t-1 8v23l-6 204q-14 -47 -29.5 -94t-34 -103t-41 -123t-48.5 -153l-193 -2l-96 97h-14l186 587h-309q-27 0 -41 15l-86 84 q-35 10 -41 47t-8 84q-2 10 -3.5 22.5t1.5 28.5zM35 1133l10 -322q2 -47 9 -85t44 -38h314q37 0 49 18.5t10 57.5l-4 369q0 23 -1 49t-8 49.5t-22.5 39t-46.5 15.5h-309q-23 -10 -31 -33.5t-10 -49t-2 -46t-2 -24.5zM43 819v23q-2 -10 2 -31zM199 1133h108v-291h-102zM352 4 l162 2q33 104 58.5 181t45 139.5t37 115t35 108.5t38 120.5t46.5 150.5q35 125 59.5 204t41 129t26.5 79t17 53l-158 -2zM799 442l10 -321q2 -47 10 -85t45 -38h316q37 0 48 18.5t9 57.5l-4 368q0 23 -1 49.5t-7 50t-21.5 39t-46.5 15.5h-311q-23 -10 -32 -33.5t-11 -49.5 t-2 -46.5t-2 -24.5zM807 152q0 -8 1 -15.5t1 -15.5v8zM965 442h108v-290h-102z" />
<glyph unicode="&#x26;" horiz-adv-x="1013" d="M37 182v81t2 81q0 31 1 81t1 81v127q-6 16 31 40.5t78 49.5l-3 -2q10 6 19.5 11t19.5 11l11 7v12l-17 24h2q-4 4 -7 9.5t-7 9.5q-45 72 -84 147.5t-39 161.5q0 35 8 70t29 65q20 33 51 49l322 2q10 -10 18 -21l16 -22l66 -65q39 -39 53.5 -86t14.5 -100l2 -277l2 -2 l-6 -166h-29q0 -8 -10 -22l10 -17l2 -2q6 -10 13 -21.5t16 -23.5l30 -55q25 16 50.5 31.5t54.5 33.5q29 16 61.5 37t54.5 35l3 -20l96 -95l26 -190q-35 -23 -68.5 -45.5t-62.5 -38.5q-25 -14 -45 -29q37 -59 82 -132t80 -132l-197 2l-96 96h-8q-16 20 -19 24.5t-3 6.5 q-4 6 -7.5 12.5t-7.5 10.5q-4 -4 -6 -4l-37 -25q-45 -98 -151 -117h-222q-4 4 -9 8.5t-9 8.5l-80 79h-6q-16 10 -29.5 25.5t-21.5 30.5q-23 35 -33 77t-6 72zM57 182q-4 -29 5.5 -65.5t31.5 -71.5q18 -29 41 -47h172v-2l2 2q0 4 2 6l2 -6h35q101 17 144 113q25 16 45 30.5 t43 26.5q2 -2 4 -2t6 -2q23 -37 49.5 -80t54.5 -90l162 -2l-149 246l-2 12q39 25 80.5 51.5t95.5 60.5l-23 158l-237 -139l-113 188q-10 16 -18.5 28.5t-16.5 23.5l6 -7l-8 17h-6q-4 0 -4 4q-2 2 -2 4l2 2q8 4 25.5 14.5t17.5 8.5h4l2 165l-2 -8l-2 287q0 51 -12.5 94 t-47.5 78l-303 -2q-10 -8 -21 -18.5t-22 -22.5q-31 -51 -34 -105.5t13.5 -107.5t46.5 -105.5t60 -101.5l13 -18l14 -25l6 -6v-27l8 4q-16 -10 -43.5 -27.5t-55.5 -33.5t-47.5 -29.5t-19.5 -15.5v-133zM217 524l119 60q2 -2 3 -4t3 -5l-4 -374l-12 -6q-6 -4 -10.5 -6.5 t-8.5 -6.5h-88zM217 1042v66h131l-2 -283l-127 211v4zM307 -4v-2v2zM489 109q0 2 3 4v-2q-2 0 -3 -2z" />
<glyph unicode="'" horiz-adv-x="329" d="M16 756l2 544h197v-12l96 -96v-64q-2 -23 -2 -55.5v-79.5v-115.5t4 -162.5v-56h-188l-96 97h-13zM37 776h160v41q-4 123 -4 202v129t1 78.5t1 53.5h-156z" />
<glyph unicode="(" horiz-adv-x="661" d="M31 475q-6 168 27.5 316.5t99 260t155.5 178t195 70.5l2 3h41v-13l96 -96l-2 -184q-66 4 -122 -35t-98 -117t-66.5 -192.5t-24.5 -257.5q0 -16 1 -34t1 -34q2 -74 19.5 -142.5t45 -131t62.5 -116.5t69 -100q4 -4 9.5 -8t9.5 -8l-2 -4q6 -6 12 -13l12 -14l74 -73 q-4 -25 -4 -46.5t2 -37.5q4 -41 0 -86q-41 -2 -94 29.5t-109 86.5l-53 54q-61 49 -122.5 125.5t-113 174t-85 211t-37.5 234.5zM51 475q6 -162 60.5 -307t128 -255t153.5 -174.5t135 -62.5q4 39 0 75t0 75q-41 37 -93 98.5t-98 141t-80 175t-38 201.5q-6 162 15.5 291 t63.5 218t101.5 134t128.5 41v154q-104 2 -194 -60.5t-154.5 -172t-99.5 -257t-29 -315.5zM512 -137q6 -6 12 -13.5t13 -11.5z" />
<glyph unicode=")" horiz-adv-x="655" d="M12 -270l74 73q6 6 12 13.5t13 13.5l-2 4q4 4 9 8t9 8q35 45 69.5 99.5t62.5 117t45.5 131t19.5 142.5q0 16 1 33.5t1 34.5q0 143 -25 257.5t-66.5 192.5t-98 117t-122.5 35l-2 184l97 96v13h41l2 -3q104 -4 194 -70.5t155.5 -178t99.5 -260t28 -316.5 q-4 -121 -38 -234.5t-85 -211t-112.5 -174t-123.5 -125.5l-53 -54q-55 -55 -108.5 -86.5t-94.5 -29.5q-4 45 0 86q2 16 2 37.5t-4 46.5zM123 -162q6 4 12 11.5t12 13.5zM131 -174q4 -39 0 -75t0 -75q37 -2 86 28t100.5 82t101.5 127t91 164t67.5 190.5t30.5 207.5 q6 168 -28.5 315.5t-99 257t-154.5 172t-195 60.5v-154q70 4 129 -41t101 -134t63.5 -218t15.5 -291q-4 -106 -37.5 -201.5t-80 -175t-98.5 -141t-93 -98.5z" />
<glyph unicode="*" horiz-adv-x="821" d="M14 1079l84 176q12 -12 29 -24q4 -4 10 -9t8 -8q16 -12 29.5 -22t36.5 -27q10 -8 21.5 -15t29.5 -22v168h199v-12l67 -72q4 4 7.5 5.5t7.5 5.5l155 -142q-2 -2 -3 -2t-3 -2l101 -98q-10 -8 -25.5 -20.5t-26.5 -22.5q-18 -14 -40.5 -32.5t-57.5 -47.5q10 -6 17.5 -12 t15.5 -10q4 -4 16 -13q12 -8 21 -12l-4 -8l98 -96l-80 -166l-168 123v-91.5t2 -78.5h-190l-78 75q-2 -2 -4 -3t-4 -3l-103 94l-155 146l159 133q-16 10 -31.5 21.5t-29.5 23.5l-72 72q-10 6 -19 13t-20 15zM41 1087l192 -141l-178 -145l127 -117q39 35 101 82v-158h161 q-2 39 -2 84v101l179 -129l65 137q-39 29 -83 59.5t-97 71.5q-4 2 -7 4t-7 4q39 33 66.5 55.5t48 38t35.5 26.5t28 21l-127 115l-105 -84q0 66 1 100.5t1 63.5h-157v-189q-78 57 -115 86t-64 50z" />
<glyph unicode="+" horiz-adv-x="897" d="M14 586l2 198l281 2v287h203v-12l96 -96v-179q10 0 21.5 -1t21.5 -1q29 0 76 -1t71 -1v-12l97 -96v-185h-285v-8q-2 -47 -2 -92v-92v-94h-190l-97 96h-12v190h-174l-96 97h-13zM35 606h282v-287h162q-2 78 -1 144.5t3 142.5q84 2 147.5 1t137.5 -1v156q0 2 -1 2t-1 2 h-283q-2 72 -1 143.5t-1 143.5h-162v-287l-280 -2z" />
<glyph unicode="," horiz-adv-x="329" d="M12 174h203v-12l96 -96v-66q2 -37 3 -107.5t1 -175.5l-108 -2l-96 97h-13v96l-71 72h-13zM33 154l2 -154h84v-168l80 2q0 82 -1 135.5t-1 89t-1 57t-1 38.5h-162z" />
<glyph unicode="-" horiz-adv-x="686" d="M16 590v41q76 0 143.5 1t134 1h134.5h145v-12l97 -97v-188l-537 -2l-96 96h-12v160h-9zM23 610l22 2v-161l508 2v159h-141.5h-125t-125 -1t-138.5 -1z" />
<glyph unicode="." horiz-adv-x="329" d="M14 174h205v-12l96 -96v-82q0 -20 -1 -48t-1 -51l-188 -2l-96 97h-13zM35 154l2 -154l160 2q0 43 1 80t1 72h-164z" />
<glyph unicode="/" horiz-adv-x="745" d="M14 -16l422 1321l201 2q-2 -4 -2 -6.5t-2 -6.5l98 -96q-4 -16 -12 -40.5t-17 -47.5q-16 -47 -44.5 -139t-75.5 -256q-27 -86 -47.5 -151.5t-39 -122t-36 -112t-38 -117.5t-46 -140t-58.5 -183l-192 -2l-96 97h-15zM43 4l162 2q33 104 58.5 181t45 139.5t36.5 115 t34.5 108.5t38 120.5t47.5 150.5q35 125 59.5 204t41 129t26.5 79t16 53l-157 -2z" />
<glyph unicode="0" horiz-adv-x="610" d="M16 1159q0 2 1 3t1 3q2 4 2 7.5t3 7.5q4 18 18 47.5t57 72.5l166 -2v-2h150q14 -16 24.5 -28.5t18.5 -22.5l57 -57q37 -39 51.5 -66.5t20.5 -48.5q4 -16 8 -22l-2 -875l2 -133q-2 -90 -18.5 -125t-59.5 -35l-61 -4l-240 6q-31 0 -47 17l-84 84q-31 10 -43 47t-14 114 l-2 136q0 49 -1 104t-1 113.5t-1.5 115t-1.5 105.5q-2 100 -3 219t-1 219zM37 1155l8 -872h2v-136q4 -82 17.5 -113.5t48.5 -31.5l239 -6v4h62q35 0 48 31.5t15 113.5l-2 134h2v870q-4 8 -8 20.5t-10 28.5t-18.5 35.5t-34.5 42.5h-156v2l-144 2q-45 -45 -53 -77t-16 -48z M195 1124h122v-815l2 -155h-2v-2l-112 2v155z" />
<glyph unicode="1" horiz-adv-x="473" d="M12 1092v208h332v-12l96 -96l19 -1315l-187 4l-96 96h-12l-10 1018h-33l-96 97h-13zM33 1112h141l10 -1114l158 -4l-18 1286h-291v-168z" />
<glyph unicode="2" horiz-adv-x="743" d="M127 1118q10 72 32.5 110t61.5 53t95.5 15t134.5 -2q102 0 143 -77l74 -72q61 -61 55 -215v-291q2 -53 -3 -84t-20.5 -46t-40 -19.5t-61.5 -6.5h-164q2 -82 2 -157.5t2 -153.5h187v-12l96 -97l4 -186h-479l-96 96h-13l-4 533q-6 55 8.5 102t39 82t58 56.5t68.5 27.5h111 v32.5t-2 33.5h-178l-97 96h-12zM147 1118l3 -162h167l-2 162h117l6 -364h-129q-33 -4 -64.5 -23.5t-54 -50.5t-34 -75t-2.5 -97l4 -514h450l-4 158h-280l-7 448h179q33 2 54 6t34.5 17.5t18.5 41t3 76.5v291q2 66 -7 114t-38 78.5t-79 45t-128 10.5q-35 2 -71.5 -3 t-67.5 -21.5t-50.5 -49t-17.5 -88.5z" />
<glyph unicode="3" horiz-adv-x="622" d="M23 274v91l196 94v-17l90 -90v23v31l-18 -7l-98 97q-8 -4 -11 -4l-4 200l-45 -18l-98 96l-10 -4v330q-4 43 7 78.5t28.5 63.5t35 44t29.5 18h207q47 -8 75.5 -29.5t51.5 -56.5l65 -65q-2 2 -3 2t-3 2l6 -4q25 -25 42.5 -60.5t35.5 -89.5v-444l4 -477q-10 -88 -57 -136 t-115 -61h-221l-96 96h-8q-43 39 -66 97.5t-18 105.5q0 18 -1 43t-1 51zM43 352l2 -174q-6 -41 13.5 -93t58.5 -87h213q63 10 107 55t52 129l-4 475h2l-2 441q-31 84 -60.5 128t-94.5 54h-203q-10 -2 -25.5 -15.5t-29 -38t-22.5 -57t-5 -71.5v-301l154 61v240h129l-4 -299 l-125 -56l4 -221l129 60l-2 -404l-129 4l-2 244z" />
<glyph unicode="4" horiz-adv-x="735" d="M16 1202v98h486v-12l96 -96l-2 -170l2 -582h25v-12l96 -96l2 -191h-121q0 -61 -2 -128.5t-2 -127.5h-190l-97 97h-12v159h-170l-96 97h-13v182zM37 1202l2 -782v-162h280l-2 -256h162l4 256h121l-2 162h-119l-4 704h2v156h-444v-78zM190 1128l129 -2l3 -706h-129z" />
<glyph unicode="5" horiz-adv-x="628" d="M20 268v97l48 22l-33 35q-4 -2 -6 -2t-6 -2l2 680q-4 72 24.5 123t67.5 77l381 2l12 -20v-2l86 -86l10 -16q4 -72 3 -107t-3 -51v-9t2 -10q2 -6 4 -10l-180 2h-117v-89t2 -83q16 8 33 15.5t33 17.5q29 14 61.5 30.5t59.5 28.5v-16l96 -96l6 -721q-10 -88 -57 -136 t-115 -61h-221l-96 96h-8q-45 41 -68 98.5t-18 102.5q0 23 -1.5 45.5t-1.5 44.5zM41 352l2 -174q-4 -41 15.5 -93t58.5 -87h213q63 10 107 55t52 129l-6 697l-282 -138l-2 367h131l2 -2h157l-2 2q0 6 1 15.5t2.5 26.5t1.5 48t-3 80l-2 2l-362 -2q-35 -23 -59.5 -69 t-20.5 -111l-2 -649l289 133l-2 -404l-129 4l-2 244zM270 391l39 -39v23v33q-10 -4 -19 -8.5t-20 -8.5z" />
<glyph unicode="6" horiz-adv-x="622" d="M23 178v271l2 649q-4 72 24.5 123t67.5 77l313 2l10 -4q10 -10 17.5 -21t15.5 -22l68 -65q37 -37 50 -83t13 -99l-4 -156l-35 -16l35 -35l6 -721q-10 -88 -57 -136t-115 -61h-221l-96 96h-8q-45 41 -68 98.5t-18 102.5zM43 178q-4 -41 15.5 -93t58.5 -87h213 q63 10 107 55t52 129l-6 697l-282 -138l-2 367h131l2 -221l151 74l4 147q0 51 -12 94t-47 78l-303 -2q-35 -23 -59.5 -69t-20.5 -111l-2 -649h2zM201 182v338l131 62l-2 -404zM315 856q0 -10 1 -18.5t1 -18.5q6 4 13.5 7t15.5 8l-24 24z" />
<glyph unicode="7" horiz-adv-x="620" d="M16 -20l220 1030h-109l-96 96h-13l-2 194h496l-2 -12l96 -96l-244 -1141q-8 -39 -17 -84t-17 -84h-201l-96 97h-15zM37 1280l2 -154h244l-240 -1126h170l33 156v-4l239 1128h-448z" />
<glyph unicode="8" horiz-adv-x="628" d="M23 182l4 324v127q-4 10 8 25.5t31 31.5q-10 10 -21.5 18.5t-15.5 8.5v379q-6 72 22.5 123t69.5 79l319 2q10 -10 18.5 -21t16.5 -22l66 -65q39 -39 53 -86t14 -100l2 -277l2 -2l-6 -166h-28q0 -4 -2.5 -8t-4.5 -8q-2 -6 -4 -10l43 -43v-414q-10 -88 -57 -136t-115 -61 h-221l-96 96h-8q-43 41 -69 100.5t-21 104.5zM43 182q-4 -41 17.5 -95t60.5 -89h213q63 10 107 55t53 129v406q-4 4 -12.5 11t-16.5 17q-10 10 -21 23q12 6 23 12q4 2 7 4t7 4l8 5h5l2 165l-2 -8l-2 287q0 51 -12.5 94t-47.5 78l-303 -2q-35 -23 -60.5 -69t-19.5 -111v-361 l25 -24l22 -23q-18 -16 -34.5 -29.5t-14.5 -21.5v-133zM203 524l125 64l-4 -406h-119zM203 1108h131l-2 -305l-127 -62zM494 588h2l-2 2v-2z" />
<glyph unicode="9" horiz-adv-x="622" d="M16 1098q10 92 58.5 141t118.5 61h225q10 -10 19 -22t20 -25l65 -65q39 -39 60.5 -94.5t15.5 -98.5v-61.5t1 -72.5t1 -72.5v-61.5l-4 -647q6 -72 -22.5 -121t-63.5 -76l-309 -2l-11 4l-92 92h-2l-10 5q-41 41 -54.5 87t-13.5 101l5 160l34 16l-26 25q-4 -2 -6 -2t-5 -2z M37 1096l4 -697l285 138v-367h-131v221l-152 -74l-4 -147q0 -51 12 -94t47 -78l303 2q33 23 58.5 69t19.5 111l4 649h-2v271q6 41 -14.5 93t-56.5 87h-213q-63 -10 -107.5 -55t-52.5 -129zM195 696v404l129 -4v-338zM276 346l29 -29v41q-8 -4 -15 -7t-14 -5z" />
<glyph unicode=":" horiz-adv-x="333" d="M14 174h205v-12l96 -96v-82q0 -20 -1 -48t-1 -51l-188 -2l-96 97h-13zM14 764v194h197q0 -4 1 -7t1 -7l94 -94q4 -29 4 -45.5v-30.5t1 -28.5t1 -30.5q0 -6 1 -15.5t5 -31.5h-196l-96 96h-13zM35 154l2 -154l160 2q0 43 1 80t1 72h-164zM35 784h164q-2 10 -2 33 q-2 35 -2 63.5t-2 57.5h-158v-154z" />
<glyph unicode=";" horiz-adv-x="331" d="M12 174h203v-12l96 -96v-66q2 -37 3 -107.5t1 -175.5l-108 -2l-96 97h-13v96l-71 72h-13zM12 764v194h197q0 -4 1 -7t1 -7l94 -94q4 -29 4 -45.5v-30.5t1 -28.5t1 -30.5q0 -6 1 -15.5t5 -31.5h-196l-96 96h-13zM33 154l2 -154h84v-168l80 2q0 82 -1 135.5t-1 89t-1 57 t-1 38.5h-162zM33 784h164q-2 10 -2 33q-2 35 -2 63.5t-3 57.5h-157v-154z" />
<glyph unicode="&#x3c;" horiz-adv-x="610" d="M14 629l293 504l195 2l-6 -11l98 -98l-281 -496l281 -469h-188l-97 97h-10zM39 631l272 -453h154l-270 453l272 483l-148 -2z" />
<glyph unicode="=" horiz-adv-x="1040" d="M16 418v200l904 -2v-12l96 -96l-2 -184h-371q-113 0 -243 -1t-275 -1l-96 96h-13zM16 958h904v-12l96 -96v-148l8 -8v-28l-37 -2l-2 2h-346q-111 0 -239 -1t-269 -1l-96 96h-12zM37 438h248.5t220 1t201 1h190.5l2 156l-862 2v-160zM37 938l6 -158h243.5t218 1t201 1 h193.5v-2l23 2h-23v156h-862zM897 438h2v2h-2v-2z" />
<glyph unicode="&#x3e;" d="M16 158l281 501l-281 476h201l14 -27l84 -82l283 -467l-291 -496l-178 -2l-96 97h-17zM51 178l146 2l282 482l-274 452h-152l269 -452z" />
<glyph unicode="?" horiz-adv-x="614" d="M14 1106q0 53 15.5 101t56.5 89l317 -4q29 -23 54 -61l65 -64q29 -29 49.5 -76t20.5 -100q0 -76 1 -162t2 -174t2 -174t1 -162h-195l-96 97h-12l2 323v97l-166 4l-96 96h-12zM35 1106l8 -150l150 -4l-3 154l132 -2l-5 -365l-2 -303h166l-6 658q6 63 -19.5 109t-60.5 69 l-301 4q-35 -35 -47 -78t-12 -92zM293 174h205v-12l96 -96v-82q0 -20 -1 -48t-1 -51l-189 -2l-96 97h-12zM313 154l2 -154l160 2q0 43 1 80t1 72h-164z" />
<glyph unicode="@" horiz-adv-x="1271" d="M16 1133q10 10 15 18q0 4 4 8l-2 -2q6 12 15 27.5t26.5 34t46.5 39t76 42.5h442l365 3q55 -35 82.5 -62t39.5 -49l64 -64q23 -23 32 -40t13 -33q4 -14 10 -25l4 -2l2 -993l-428 2l-284 -4q-18 16 -34 28.5t-28 24.5l-43 43q-109 84 -104 119v325q0 53 69 78l-53 56l-14 2 l-2 163q10 35 43 50.5t80 9.5q31 -2 67.5 -3t69.5 -1q35 -2 71.5 -2h71.5q61 -35 68 -56l4 -8l84 -84q4 -4 8 -12q6 -12 13.5 -24.5t13.5 -24.5l2 -400h35q0 100 -1.5 197.5t-1.5 196.5q-2 66 -2 142.5v154.5h-643q2 -289 4 -566.5t5 -564.5h643q0 16 -1 33.5t-1 36.5v73 h194v-12l96 -96l2 -160q-6 -53 -15 -88t-27.5 -54.5t-48 -26.5t-74.5 -7h-228l-551 4q-47 -2 -79.5 5t-55.5 30l-76 76q-37 16 -54 54t-15 112q-2 160 -4 318.5t-4 318.5t-3.5 319.5t-3.5 319.5zM37 1124l14 -1267q0 -51 9.5 -83t29 -49.5t49 -22.5t70.5 -5l551 -4l-2 4 l229 -4q41 0 68.5 7t44 25.5t26 50t13.5 81.5l-2 143h-154l2 -143h-780l-8 1267h780l4 -827h-172l-2 520l-27 49q2 8 -53 39l-274 6q-86 12 -103 -45l2 -139l154 -22l2 67h135l-2 -129h-182q-106 -16 -109 -70v-325q-2 -25 90 -98l281 4v-2h414l-2 972q-10 10 -13.5 25.5 t-14.5 36t-34.5 44t-73.5 52.5l-358 -2v2l-438 -2q-53 -29 -82 -52.5t-44.5 -43t-22.5 -34.5t-15 -26zM508 303v189l135 -3v-186h-135z" />
<glyph unicode="A" horiz-adv-x="618" d="M18 1057v13q0 54 14 108q16 60 64 114l299 2q43 -31 64 -69l59 -58h-2l8 -6q37 -35 50.5 -85t23.5 -115l4 -1078h-186l-97 97h-6v-97h-184l-96 97h-13zM39 1057l2 -1057h156l-2 573l133 52v-625h157l-4 1061q-10 74 -26.5 127t-67.5 86l-283 -2q-39 -48 -53 -102 q-12 -48 -12 -98v-15zM195 1116h131l-2 -328l-127 -49z" />
<glyph unicode="B" horiz-adv-x="616" d="M16 -20v1320l322 3q53 -6 86 -24.5t51 -55.5l72 -72q39 -39 51 -139l-2 -209q-2 -33 -2 -59.5t-4 -50t-12.5 -44t-26.5 -39.5l12 -12q10 -10 18.5 -26.5t16.5 -32.5v-426q2 -18 2 -40v-38q0 -49 -5 -80t-18.5 -46t-34 -20.5t-50.5 -5.5h-367l-96 97h-13zM37 0h352 q33 0 52.5 7t29.5 29.5t11 64.5v31q0 35 -1 83v424q-14 29 -26.5 46t-36.5 17q43 41 50 89.5t11 113.5l2 207q-10 86 -40.5 124t-104.5 46l-299 -2v-1280zM195 1126h131l-2 -266l-127 -43zM197 154v469q0 4 19.5 10t43.5 14l66 21l-2 -514h-127z" />
<glyph unicode="C" horiz-adv-x="614" d="M16 -23v1323l402 -4q14 -16 24.5 -28.5t18.5 -22.5l57 -57q37 -39 51.5 -66.5t20.5 -48.5q4 -16 8 -22v-207h-186l-97 96h-4v-600h191v-12l96 -97v-188q-2 -90 -18.5 -125t-59.5 -35l-395 -2l-96 96h-13zM37 -2l381 2q35 0 48 31.5t15 113.5v174h-157v-165h-129v970h127 l2 -163h157v188q-4 8 -8 20.5t-10 28.5t-18.5 35.5t-34.5 42.5l-373 4v-1282z" />
<glyph unicode="D" horiz-adv-x="614" d="M16 -23v1323l402 -4q14 -16 24.5 -28.5t18.5 -22.5l57 -57q37 -39 51.5 -66.5t20.5 -48.5q4 -16 8 -22l-2 -875l2 -133q-2 -90 -18.5 -125t-59.5 -35l-395 -2l-96 96h-13zM37 -2l381 2q35 0 48 31.5t15 113.5l-2 134h2v870q-4 8 -8 20.5t-10 28.5t-18.5 35.5t-34.5 42.5 l-373 4v-1282zM195 154v970h127v-815l2 -155h-129z" />
<glyph unicode="E" d="M12 1083q2 45 7.5 82t24.5 64.5t55 44t100 22.5l301 4v-12l96 -96v-182h-287v-197q10 4 17.5 6t17.5 6q23 10 49.5 18.5t46.5 16.5l6 -20l93 -90l61 -175l-291 -106v-297h191v-12l96 -97l2 -180h-473l-96 97h-13zM33 1083l4 -1083h444l-2 152h-286v430l286 104l-53 148 l-233 -84v376h286v154l-278 -4q-55 -6 -88 -21.5t-50.5 -40t-22.5 -57.5t-7 -74z" />
<glyph unicode="F" horiz-adv-x="610" d="M12 1083q2 45 7.5 82t24.5 64.5t55 44t100 22.5l301 4v-12l96 -96v-182h-287v-197q10 4 17.5 6t17.5 6q23 10 49.5 18.5t46.5 16.5l6 -20l93 -90l61 -175l-291 -106q2 -131 3 -223t1 -162t-1 -111t-1 -61l-24 25q-2 -8 -2 -15.5v-11.5q0 -6 -2 -10l14 -17h-172l-96 97 h-13zM33 1083l4 -1083h158q-1 -6 -1.5 -6t0.5 12q1 20 2 84v79v105q-1 118 -3 308l286 104l-53 148l-233 -84v376h286v154l-278 -4q-55 -6 -88 -21.5t-50.5 -40t-22.5 -57.5t-7 -74z" />
<glyph unicode="G" horiz-adv-x="608" d="M12 -23v1323l402 -4q14 -16 24.5 -28.5t18.5 -22.5l57 -57q37 -39 51.5 -66.5t20.5 -48.5q4 -16 8 -22v-207h-186l-97 96h-4v-223l193 65v-14l96 -96l-2 -629q0 -90 -17.5 -125t-60.5 -35l-395 -2l-96 96h-13zM33 -2l381 2q35 0 49 31.5t14 113.5l2 609l-223 -76v-189 l66 27l-3 -362h-129v970h127l2 -163h158v188q-4 8 -8 20.5t-10 28.5t-18.5 35.5t-34.5 42.5l-373 4v-1282z" />
<glyph unicode="H" horiz-adv-x="608" d="M12 1300h199v-12l86 -86v98h199v-12l96 -96v-211v-177t2 -126v-565q2 -53 2 -113.5v-116.5h-186l-97 97h-4l2 -97h-186l-96 97h-13zM33 1280l4 -1280h158l-2 154v469q0 4 19 10t44 14l66 21l-3 -514l3 -154h157v108.5t-2 106.5v410v86t-1 120.5t-1 181v267.5h-158l2 -420 l-126 -43q-4 123 -4.5 202t-0.5 129t1 78.5t1 53.5h-157z" />
<glyph unicode="I" horiz-adv-x="323" d="M12 -20v1320h199v-12l96 -96v-64q-2 -23 -2.5 -55.5t-0.5 -79.5v-115.5t5 -162.5q0 -129 1 -214t1 -167t-1 -187.5t-1 -261.5l-188 -2l-96 97h-13zM33 0l160 2q0 104 1 181t1 139.5v114.5v108.5t-1 121t-1 150.5q-4 123 -4.5 202t-0.5 129t1 78.5t1 53.5h-157v-1280z" />
<glyph unicode="J" d="M10 782l264 -92v-10l25 -25v78q0 66 -1 139.5t-2 148.5t-1 146.5v135.5l201 -5v-12l96 -96l8 -1307h-393q-33 0 -49 17l-95 94q-6 4 -10 10q-8 6 -12 21q-20 39 -21 118q-2 70 -3 157t-3 159q-2 80 -3 163t-1 160zM31 754l10 -611v-18q0 -67 13 -95q16 -30 50 -30h379 l-8 1278l-160 4l11 -1130h-129l-7 362l66 -27l-2 189z" />
<glyph unicode="K" horiz-adv-x="641" d="M14 1300h203v-12l29 -33q4 12 5 23.5t5 21.5h215l-4 -12l98 -96l-151 -518q53 -195 106 -396.5t107 -396.5l-195 2l-96 97h-10l-9 26q2 -33 2 -63.5v-59.5h-190l-96 97h-13zM35 1280l6 -1280h162l-4 428l12 64l131 -492l164 -2l-211 778l147 504h-168l-77 -328v328h-162z " />
<glyph unicode="L" horiz-adv-x="608" d="M14 -23v1323l199 -2v-12l96 -96v-1018h189v-14l96 -95l2 -20q0 -90 -17.5 -125t-60.5 -35l-395 -2l-96 96h-13zM35 -2l381 2q35 0 49 31.5t14 113.5l-2 7h-178v2h-106v1124l-158 2v-1282z" />
<glyph unicode="M" horiz-adv-x="886" d="M14 43.5v56.5v39t2 37v959q0 92 18.5 128.5t65.5 36.5h269l18 -20l6 -10l2 2q2 2 2 4q8 12 19 22l20 -20l23 22h221q53 0 76 -49l80 -80q35 -35 36 -141v-1147h-190l-90 90v-90h-191l-92 92q0 -29 -1 -44t-1 -25v-23h-182l-96 97h-13q-2 29 -2 63.5zM35 1001l2 -827 q-1 -30 -1 -73t1 -101h153q0 12 1.5 29.5t2.5 58.5t1 112.5v193.5v300t-2 432h2l-5 2h123q-2 -233 -2 -417.5v-322.5t1 -234.5t1 -153.5h162v131l-2 2q0 43 1 110.5t1 167v235.5t-2 319v161v2h121q-2 -233 -2 -417.5v-322.5t1 -234.5t1 -153.5h162v131v1002 q-4 82 -22.5 114.5t-53.5 32.5h-143.5h-76h-29.5h-5q2 0 -2 -3t-8 -9q-4 -4 -6 -8.5t-4 -8.5q-8 -8 -11 -12q-2 -4 -2 -6l-10 16l-10 17l-13 14h-260q-35 0 -49 -31.5t-14 -113.5v-134h-2z" />
<glyph unicode="N" horiz-adv-x="606" d="M14 43.5v56.5v39t2 37v959q0 92 18.5 128.5t65.5 36.5l299 -2q55 0 76 -51l80 -78q16 -16 25.5 -50t11.5 -89l-2 -997q2 -29 2 -70v-80h-191l-92 92q0 -29 -1 -44t-1 -25v-23h-182l-96 97h-13q-2 29 -2 63.5zM35 1001l2 -827q-1 -30 -1 -73t1 -101h153q0 12 1.5 29.5 t2.5 58.5t1 112.5v193.5v300t-2 432h2l-5 2h123q-2 -233 -2 -417.5v-322.5t1 -234.5t1 -153.5h162v74.5t-2 60.5l2 -4v1002q-4 82 -22.5 113.5t-53.5 31.5l-299 2q-35 0 -49 -31.5t-14 -113.5v-134h-2z" />
<glyph unicode="O" horiz-adv-x="608" d="M14 1159q4 4 9 25q6 20 20 48t55 68l166 -2v-2h150q14 -16 24.5 -28.5t18.5 -22.5l57 -57q37 -39 51.5 -66.5t20.5 -48.5q4 -16 8 -22l-2 -875l2 -133q-2 -90 -18.5 -125t-59.5 -35l-61 -4l-240 6q-31 0 -47 17l-84 84q-31 10 -43 47t-14 114l-2 136q-2 100 -3.5 217.5 t-3.5 220.5q-2 100 -3 219t-1 219zM35 1155l10 -872h2v-136q4 -82 17.5 -113.5t48.5 -31.5l239 -6v4h62q35 0 48 31.5t15 113.5l-2 134h2v870q-4 8 -8 20.5t-10 28.5t-18.5 35.5t-34.5 42.5h-156v2l-144 2q-23 -23 -35 -42t-18 -34.5t-10 -28t-8 -20.5zM195 1124h122v-815 l2 -155h-2v-2l-112 2v155z" />
<glyph unicode="P" horiz-adv-x="608" d="M14 -20v1320l322 3q53 -6 86 -24.5t51 -55.5l72 -72q39 -39 51 -139l-2 -209q-2 -35 -4 -64.5t-8.5 -56.5t-19.5 -50.5t-38 -45.5q-6 0 -14 -4q-10 -4 -28.5 -11.5t-53.5 -15.5q-8 -6 -23.5 -10t-33.5 -10q-18 -4 -36 -9.5t-24 -5.5l2 -637h-190l-96 97h-13zM35 0h162 l-2 623q0 2 18 9t40.5 15t42 14.5t23.5 10.5q39 8 63 17t34 13q43 41 50 89.5t11 113.5l2 207q-10 86 -40.5 124t-104.5 46l-299 -2v-1280zM193 1126h131l-2 -266l-127 -43z" />
<glyph unicode="Q" horiz-adv-x="608" d="M14 1159q4 4 9 25q6 20 20 48t55 68l152 -4h164q14 -16 24.5 -28.5t18.5 -22.5l57 -57q37 -39 51.5 -66.5t20.5 -48.5q4 -16 8 -22l-2 -875l2 -133q-2 -61 -11.5 -96t-25.5 -51q4 -41 12.5 -87.5t12.5 -84.5h-168l-97 96h-12l-10 65q-20 2 -39.5 1t-40.5 -1q-31 0 -47 17 l-84 84q-31 10 -43 47t-14 114l-2 136q-2 100 -3.5 217.5t-3.5 220.5q-2 100 -3 219t-1 219zM35 1155l10 -872h2v-136q4 -82 17.5 -113.5t48.5 -31.5l190 -4l21 -158h139l-23 166q18 10 26.5 43t10.5 96l-2 134h2v870q-4 8 -8 20.5t-10 28.5t-18.5 35.5t-34.5 42.5h-156v2 l-144 2q-23 -23 -35 -42t-18 -34.5t-10 -28t-8 -20.5zM195 1124h122v-815v-2h-59l23 -155l-76 2v155z" />
<glyph unicode="R" horiz-adv-x="636" d="M14 -20v1320l322 3q53 -6 86 -24.5t51 -55.5l72 -72q39 -39 51 -139l-2 -209q-2 -35 -4 -64.5t-8.5 -56.5t-19.5 -50.5t-38 -45.5q-6 0 -14 -4q-10 -4 -30.5 -11.5t-53.5 -15.5q-6 -4 -16.5 -7t-22.5 -7q-8 -4 -7 -1t-7 -1q33 -86 59.5 -155t59.5 -153q25 -63 57.5 -150 t73.5 -192l-185 -6l-96 97h-10l-21 49q2 -35 2 -72v-74h-190l-96 97h-13zM35 0h162l-2 383l151 -383l154 6q-47 123 -81 210t-61.5 156.5t-52 133t-53.5 141.5q23 8 43 14.5t24 10.5q39 8 63 17t34 13q43 41 50 89.5t11 113.5l2 207q-10 86 -40.5 124t-104.5 46l-299 -2 v-1280zM193 1126h131l-2 -266l-127 -43z" />
<glyph unicode="S" horiz-adv-x="618" d="M18 274v91l48 22l-33 35q-4 -2 -6 -2t-7 -2l3 678q-1 13 -1 24q0 56 24 99q28 51 69 79l313 2l10 -4q10 -10 17.5 -21t15.5 -22l68 -65q37 -37 50 -83t13 -99l-4 -156l-35 -16l35 -35l6 -721q-10 -88 -57 -136t-115 -61h-221l-96 96h-9q-42 39 -66 97q-20 50 -21 92 q0 7 1 14q0 16 -1 44t-1 50zM39 352l2 -174q-1 -9 -2 -19q1 -34 17 -74q20 -52 59 -87h213q63 10 107 55t52 129l-6 697l-282 -138l-2 367h131l2 -221l151 74l4 147q0 51 -12 94t-47 78l-303 -2q-35 -23 -61 -69q-21 -37 -20 -87q0 -12 1 -24l-2 -649l289 133l-2 -406h-129 l-2 250zM268 391l39 -39v23v33q-10 -4 -19 -8.5t-20 -8.5zM313 856q0 -10 1 -18.5t1 -18.5q6 4 13.5 7t15.5 8l-25 24z" />
<glyph unicode="T" horiz-adv-x="575" d="M12 1094v206h453v-12l96 -96l2 -195h-131v-125q0 -49 1 -125.5t2 -193.5t2 -282t1 -388l-190 -2l-96 96h-13l-2 1020h-16l-96 97h-13zM33 1114h125l2 -1116l162 2q-2 229 -2.5 393t-1.5 279.5t-1 189.5t-1 122t-1 77v53h131l-2 166h-411v-166z" />
<glyph unicode="U" horiz-adv-x="606" d="M14 147l2 996v157h203v-12l78 -78q0 41 1 59.5t3 30.5h195v-12l96 -96v-188l-2 -828l2 -133q-2 -90 -18.5 -125t-59.5 -35l-301 2q-33 0 -53 21l-82 80q-29 10 -44.5 48t-19.5 113zM35 147q4 -82 22.5 -113.5t53.5 -31.5l301 -2q35 0 48 31.5t15 113.5l-2 134h2v827v174 h-153q-2 -12 -3.5 -29.5t-2.5 -58.5t-1 -112.5v-193.5v-300t2 -432h-2l4 -2h-122q2 233 2 417.5v322.5v234.5v153.5h-162q0 -43 -1 -74.5t1 -60.5v4z" />
<glyph unicode="V" horiz-adv-x="753" d="M12 1300h201q0 -10 2 -14l94 -94q16 -129 31.5 -238.5t28.5 -205.5q16 113 35.5 251t41.5 301h199l-2 -12l98 -96l-184 -1309h-250l-96 97h-12zM35 1280l182 -1280h225l181 1280h-158q-27 -188 -47.5 -337.5t-36.5 -267.5t-29.5 -207t-21.5 -155q-10 66 -22.5 155 t-29 206t-37 267.5t-46.5 338.5h-160z" />
<glyph unicode="W" horiz-adv-x="1185" d="M14 1300h201l2 -14l94 -94l60 -451q16 123 35.5 264.5t42.5 294.5l194 -2l2 -14l94 -94l60 -445q16 113 35.5 251.5t42.5 301.5h198l-2 -12l98 -96l-184 -1309h-250l-96 96h-12l-29 195q-12 -74 -22.5 -146.5t-18.5 -140.5l2 -2h-252l-96 97h-12zM37 1280l182 -1280h225 l101 711l102 -713h225l181 1280h-158q-27 -188 -47.5 -337.5t-36.5 -267.5t-29.5 -207t-21.5 -155l-135 967h-2l2 2h-158q-51 -371 -84 -603.5t-51 -363.5l-135 967h-160z" />
<glyph unicode="X" horiz-adv-x="649" d="M14 1300h213l2 -16l84 -84q4 27 6.5 52.5t6.5 47.5h213l-2 -10l98 -98l-100 -602q10 -78 21 -169t22.5 -185.5t22.5 -184.5t22 -168h-187l-96 97q-4 -27 -8 -51.5t-8 -51.5l-187 4l-96 96h-12l108 719q-16 70 -30.5 146t-30.5 151q-16 78 -31.5 157t-30.5 150zM41 1280 l117 -582l-107 -700l158 -4l84 510l53 -504h158l-86 692l98 588h-172l-51 -424l-84 424h-168z" />
<glyph unicode="Y" horiz-adv-x="630" d="M14 1300h199v-12l86 -86v98h199v-12l96 -96l14 -1139q1 -16 1 -30q0 -46 -15 -81q-19 -44 -66 -63l-221 4q-14 0 -47 10.5t-67 45.5l-66 63q-31 16 -61.5 54t-42.5 106l198 180v-18l88 -88q-2 39 -2 75.5v75.5q-2 16 -2 34.5v39.5q-47 -20 -91 -36.5t-85 -33.5l-98 96 q-4 -2 -5 -2t-6 -2zM35 1280l6 -764l285 115l6 -477h-129l-2 143l-156 -143q10 -49 32.5 -79t47.5 -47.5t47.5 -22.5t32.5 -5l215 -4q74 30 74 122q0 17 -2 36l-15 1126h-158l7 -483l-131 -54l-2 537h-158z" />
<glyph unicode="Z" horiz-adv-x="618" d="M14 -20l219 1030h-108l-96 96h-13l-2 194h496l-2 -12l96 -96l-217 -1018q31 0 61.5 1t59.5 1v-12l96 -96v-183l-479 -2l-96 97h-15zM35 1280l2 -154h244l-240 -1126l446 2v154l-243 -4l239 1128h-448z" />
<glyph unicode="[" horiz-adv-x="462" d="M16 -266l2 1569l332 -3v-12l96 -96l-2 -184h-133v-182.5t1 -152t1 -130v-119.5v-106.5t-1 -114t-1 -128v-149.5h33v-12l96 -96v-180h-315l-96 96h-13zM37 -246h287v152h-129q0 145 1 253.5t1 197.5v168v166t-1 190.5t-1 242.5h133l2 156l-291 2z" />
<glyph unicode="\" horiz-adv-x="1114" d="M12 1307l207 -2l14 -27l84 -82l785 -1309l-197 2l-96 97h-10q-211 350 -408.5 680.5t-378.5 640.5zM49 1286q178 -307 364.5 -619.5t397.5 -660.5l162 -2l-766 1280z" />
<glyph unicode="]" horiz-adv-x="462" d="M16 -266l2 192h129v381v167v154v169v211h-22l-96 96h-13l2 196l332 3v-13l96 -96l-8 -1556h-313l-96 96h-13zM37 -246h285l8 1528l-291 -2l-2 -156h133q-2 -139 -2 -242.5v-190.5v-166v-168v-197.5v-253.5h-129z" />
<glyph unicode="^" horiz-adv-x="1116" d="M14 567l9 310q45 68 84.5 113.5t78.5 92.5q12 16 25 29q53 59 113.5 132t146.5 190l528 -566v-2l97 -102l6 -272l-96 96v-8l-433 442l-450 -541l-98 99zM35 623l442 528l508 -520l-6 229l-506 543q-74 -102 -131 -171t-107.5 -125t-96.5 -110.5t-95 -126.5z" />
<glyph unicode="_" horiz-adv-x="1288" d="M16 -319h314q203 0 415.5 -1.5t428.5 -3.5v-12l96 -96l2 -180l-1147 -2l-96 96h-13v199zM37 -340v-158l1118 2l-2 152q-293 4 -567.5 5t-548.5 -1z" />
<glyph unicode="`" horiz-adv-x="563" d="M14 1346l27 32h190l35 -43l66 -65l217 -269h-230l-96 97h-8q-6 8 -13 17t-16 20q-23 29 -46 59.5t-52 65.5q-10 10 -20.5 23t-22.5 28q-10 10 -17.5 18t-13.5 17zM41 1348q59 -72 104 -127.5t80 -102.5h193l-195 240h-174z" />
<glyph unicode="a" horiz-adv-x="614" d="M16 1057v13q0 54 14 108q16 60 64 114l299 2q43 -31 64 -69l59 -58h-2l8 -6q37 -35 50.5 -85t23.5 -115l4 -1078h-186l-97 97h-6v-99l-184 2l-96 97h-13zM37 1057l2 -1057l156 -2l-2 575l133 52v-625h157l-4 1061q-10 74 -26.5 127t-67.5 86l-283 -2q-39 -48 -53 -102 q-12 -48 -12 -98v-15zM193 1116h131l-2 -328l-127 -49z" />
<glyph unicode="b" d="M14 -20v1320l322 3q53 -6 86 -24.5t51 -55.5l72 -72q39 -39 51 -139l-2 -209q-2 -33 -2 -59.5t-4 -50t-12.5 -44t-26.5 -39.5l12 -12q10 -10 18.5 -26.5t16.5 -32.5v-426q2 -18 2 -40v-38q0 -49 -5 -80t-18.5 -46t-34 -20.5t-51.5 -5.5h-366l-96 97h-13zM35 0h352 q33 0 52.5 7t29.5 29.5t11 64.5v31q0 35 -1 83v424q-14 29 -26.5 46t-36.5 17q43 41 50 89.5t11 113.5l2 207q-10 86 -40.5 124t-104.5 46l-299 -2v-1280zM193 1126h131l-2 -266l-127 -43zM195 154v469q0 4 19 10t44 14l66 21l-2 -514h-127z" />
<glyph unicode="c" horiz-adv-x="610" d="M14 -23v1323l402 -4q14 -16 24.5 -28.5t18.5 -22.5l57 -57q37 -39 51.5 -66.5t20.5 -48.5q4 -16 8 -22v-207h-186l-97 96h-4v-600h191v-12l96 -97v-188q-2 -90 -18.5 -125t-59.5 -35l-395 -2l-96 96h-13zM35 -2l381 2q35 0 48 31.5t15 113.5v174h-157v-165h-129v970h126 l3 -163h157v188q-4 8 -8 20.5t-10 28.5t-18.5 35.5t-34.5 42.5l-373 4v-1282z" />
<glyph unicode="d" horiz-adv-x="610" d="M14 -23v1323l402 -4q14 -16 24.5 -28.5t18.5 -22.5l57 -57q37 -39 51.5 -66.5t20.5 -48.5q4 -16 8 -22l-2 -875l2 -133q-2 -90 -18.5 -125t-59.5 -35l-395 -2l-96 96h-13zM35 -2l381 2q35 0 48 31.5t15 113.5l-2 134h2v870q-4 8 -8 20.5t-10 28.5t-18.5 35.5t-34.5 42.5 l-373 4v-1282zM193 154v970h126v-815l3 -155h-129z" />
<glyph unicode="e" horiz-adv-x="616" d="M14 1083q2 45 7.5 82t25 64.5t55 44t99.5 22.5l301 4v-12l96 -96v-182h-287v-197q10 4 17.5 6t17.5 6q23 10 49.5 18.5t46.5 16.5l7 -20l92 -90l61 -175l-291 -106v-297h191v-12l96 -97l2 -180h-473l-96 97h-13zM35 1083l4 -1083h444l-2 152h-286v430l286 104l-53 148 l-233 -84v376h286v154l-278 -4q-55 -6 -88 -21.5t-50.5 -40t-22.5 -57.5t-7 -74z" />
<glyph unicode="f" horiz-adv-x="614" d="M14 1083q2 45 7.5 82t25 64.5t55 44t99.5 22.5l301 4v-12l96 -96v-182h-287v-197q10 4 17.5 6t17.5 6q23 10 49.5 18.5t46.5 16.5l7 -20l92 -90l61 -175l-291 -106q2 -131 3 -223t1 -162t-1 -111t-1 -61l-24 25q-2 -8 -2 -15.5v-11.5q0 -6 -2 -10l14 -17h-172l-96 97h-13 zM35 1083l4 -1083h158q-1 -6 -1.5 -6t0.5 12q1 19 2 84v79v105q-1 119 -3 308l286 104l-53 148l-233 -84v376h286v154l-278 -4q-55 -6 -88 -21.5t-50.5 -40t-22.5 -57.5t-7 -74z" />
<glyph unicode="g" d="M14 -23v1323l402 -4q14 -16 24.5 -28.5t18.5 -22.5l57 -57q37 -39 51.5 -66.5t20.5 -48.5q4 -16 8 -22v-207h-186l-97 96h-4v-223l193 65v-14l96 -96l-2 -629q0 -90 -17.5 -125t-60.5 -35l-395 -2l-96 96h-13zM35 -2l381 2q35 0 49 31.5t14 113.5l2 609l-223 -76v-189 l66 27l-2 -362h-129v970h126l3 -163h157v188q-4 8 -8 20.5t-10 28.5t-18.5 35.5t-34.5 42.5l-373 4v-1282z" />
<glyph unicode="h" d="M14 1300h199v-12l86 -86v98h199v-12l96 -96v-211v-177t2 -126v-565q2 -53 2 -113.5v-116.5h-186l-97 97h-4l2 -97h-186l-96 97h-13zM35 1280l4 -1280h158l-2 154v469q0 4 19 10t44 14l66 21l-2 -514l2 -154h157v108.5t-2 106.5v410v86t-1 120.5t-1 181v267.5h-158l3 -420 l-127 -43q-4 123 -4.5 202t-0.5 129t1.5 78.5t1.5 53.5h-158z" />
<glyph unicode="i" horiz-adv-x="327" d="M14 -20v1320h199v-12l96 -96v-64q-2 -23 -2.5 -55.5t-0.5 -79.5v-115.5t5 -162.5q0 -129 1 -214t1 -167t-1 -187.5t-1 -261.5l-188 -2l-96 97h-13zM35 0l160 2q0 104 1 181t1 139.5v114.5v108.5t-1 121t-1 150.5q-4 123 -4.5 202t-0.5 129t1.5 78.5t1.5 53.5h-158v-1280z " />
<glyph unicode="j" horiz-adv-x="616" d="M12 782l264 -92v-10l25 -25v78q0 66 -1 139.5t-2 148.5t-1 146.5v135.5l201 -5v-12l96 -96l8 -1307h-393q-33 0 -49 17l-94 94q-6 4 -11 10q-8 6 -12 21q-20 39 -20 118q-2 70 -3.5 157t-3.5 159q-2 80 -3 163t-1 160zM33 754l10 -611v-18q0 -67 13 -95q16 -30 50 -30 h379l-8 1278l-160 4l11 -1130h-129l-6 362l65 -27l-2 189z" />
<glyph unicode="k" horiz-adv-x="641" d="M14 1300h203v-12l29 -33q4 12 5 23.5t5 21.5h215l-4 -12l98 -96l-151 -518q53 -195 106 -396.5t107 -396.5l-195 2l-96 97h-10l-9 26q2 -33 2 -63.5v-59.5h-190l-96 97h-13zM35 1280l6 -1280h162l-4 428l12 64l131 -492l164 -2l-211 778l147 504h-168l-77 -328v328h-162z " />
<glyph unicode="l" horiz-adv-x="608" d="M14 -23v1323l199 -2v-12l96 -96v-1018h189v-14l96 -95l2 -20q0 -90 -17.5 -125t-60.5 -35l-395 -2l-96 96h-13zM35 -2l381 2q35 0 49 31.5t14 113.5l-2 7h-178v2h-106v1124l-158 2v-1282z" />
<glyph unicode="m" horiz-adv-x="890" d="M16 43.5v56.5v39t2 37v959q0 92 18.5 128.5t65.5 36.5h269l18 -20l6 -10l2 2q2 2 2 4q8 12 19 22l20 -20l23 22h221q53 0 76 -49l80 -80q35 -35 36 -141v-1147h-190l-90 90v-90h-191l-92 92q0 -29 -1 -44t-1 -25v-23h-182l-96 97h-13q-2 29 -2 63.5zM37 1001l2 -827 q-1 -30 -1 -73t1 -101h154q0 12 1 29.5t2 58.5t1 112.5v193.5v300t-2 432h2l-4 2h122q-2 -233 -2 -417.5v-322.5t1 -234.5t1 -153.5h162v131l-2 2q0 43 1 110.5t1 167v235.5t-2 319v161v2h121q-2 -233 -2 -417.5v-322.5t1 -234.5t1 -153.5h162v131v1002q-4 82 -22.5 114.5 t-53.5 32.5h-143.5h-76h-29.5h-5q2 0 -2 -3t-8 -9q-4 -4 -6 -8.5t-4 -8.5q-8 -8 -11 -12q-2 -4 -2 -6l-10 16l-10 17l-13 14h-260q-35 0 -49 -31.5t-14 -113.5v-134h-2z" />
<glyph unicode="n" horiz-adv-x="610" d="M16 43.5v56.5v39t2 37v959q0 92 18.5 128.5t65.5 36.5l299 -2q55 0 76 -51l80 -78q16 -16 25.5 -50t11.5 -89l-2 -997q2 -29 2 -70v-80h-191l-92 92q0 -29 -1 -44t-1 -25v-23h-182l-96 97h-13q-2 29 -2 63.5zM37 1001l2 -827q-1 -30 -1 -73t1 -101h154q0 12 1 29.5 t2 58.5t1 112.5v193.5v300t-2 432h2l-4 2h122q-2 -233 -2 -417.5v-322.5t1 -234.5t1 -153.5h162v74.5t-2 60.5l2 -4v1002q-4 82 -22.5 113.5t-53.5 31.5l-299 2q-35 0 -49 -31.5t-14 -113.5v-134h-2z" />
<glyph unicode="o" horiz-adv-x="608" d="M14 1159q4 4 9 25q6 20 20 48t55 68l166 -2v-2h150q14 -16 24.5 -28.5t18.5 -22.5l57 -57q37 -39 51.5 -66.5t20.5 -48.5q4 -16 8 -22l-2 -875l2 -133q-2 -90 -18.5 -125t-59.5 -35l-61 -4l-240 6q-31 0 -47 17l-84 84q-31 10 -43 47t-14 114l-2 136q-2 100 -3.5 217.5 t-3.5 220.5q-2 100 -3 219t-1 219zM35 1155l10 -872h2v-136q4 -82 17.5 -113.5t48.5 -31.5l239 -6v4h62q35 0 48 31.5t15 113.5l-2 134h2v870q-4 8 -8 20.5t-10 28.5t-18.5 35.5t-34.5 42.5h-156v2l-144 2q-23 -23 -35 -42t-18 -34.5t-10 -28t-8 -20.5zM195 1124h122v-815 l2 -155h-2v-2l-112 2v155z" />
<glyph unicode="p" horiz-adv-x="608" d="M14 -20v1320l322 3q53 -6 86 -24.5t51 -55.5l72 -72q39 -39 51 -139l-2 -209q-2 -35 -4 -64.5t-8.5 -56.5t-19.5 -50.5t-38 -45.5q-6 0 -14 -4q-10 -4 -28.5 -11.5t-53.5 -15.5q-8 -6 -23.5 -10t-33.5 -10q-18 -4 -36 -9.5t-24 -5.5l2 -637h-190l-96 97h-13zM35 0h162 l-2 623q0 2 18 9t40.5 15t42 14.5t23.5 10.5q39 8 63 17t34 13q43 41 50 89.5t11 113.5l2 207q-10 86 -40.5 124t-104.5 46l-299 -2v-1280zM193 1126h131l-2 -266l-127 -43z" />
<glyph unicode="q" horiz-adv-x="606" d="M14 1159q0 2 1 3t1 3q2 4 2 7.5t2 7.5q4 18 18.5 47.5t57.5 72.5l152 -4h164q14 -16 24 -28.5t19 -22.5l57 -57q37 -39 51.5 -66.5t20.5 -48.5q4 -16 8 -22l-2 -875l2 -133q-2 -61 -11.5 -96t-25.5 -51q4 -41 12 -87.5t13 -84.5h-168l-97 96h-12l-10 65q-20 2 -40 1 t-40 -1q-31 0 -47 17l-84 84q-31 10 -43 47t-14 114l-2 136q0 49 -1.5 104t-1.5 113.5t-1 115t-1 105.5q-2 100 -3 219t-1 219zM35 1155l8 -872h2v-136q4 -82 17.5 -113.5t48.5 -31.5l190 -4l21 -158h139l-23 166q18 10 26.5 43t10.5 96l-2 134h2v870q-4 8 -8 20.5t-10 28.5 t-18.5 35.5t-35.5 42.5h-155v2l-144 2q-45 -45 -53 -77t-16 -48zM193 1124h122v-815v-2h-59l23 -155l-76 2v155z" />
<glyph unicode="r" horiz-adv-x="636" d="M14 -20v1320l322 3q53 -6 86 -24.5t51 -55.5l72 -72q39 -39 51 -139l-2 -209q-2 -35 -4 -64.5t-8.5 -56.5t-19.5 -50.5t-38 -45.5q-6 0 -14 -4q-10 -4 -30.5 -11.5t-53.5 -15.5q-6 -4 -16.5 -7t-22.5 -7q-8 -4 -7 -1t-7 -1q33 -86 59.5 -155t59.5 -153q25 -63 57.5 -150 t73.5 -192l-185 -6l-96 97h-10l-21 49q2 -35 2 -72v-74h-190l-96 97h-13zM35 0h162l-2 383l151 -383l154 6q-47 123 -81 210t-61.5 156.5t-52 133t-53.5 141.5q23 8 43 14.5t24 10.5q39 8 63 17t34 13q43 41 50 89.5t11 113.5l2 207q-10 86 -40.5 124t-104.5 46l-299 -2 v-1280zM193 1126h131l-2 -266l-127 -43z" />
<glyph unicode="s" horiz-adv-x="618" d="M18 274v91l48 22l-33 35q-4 -2 -6 -2t-7 -2l3 678q-1 13 -1 24q0 56 24 99q28 51 69 79l313 2l10 -4q10 -10 17.5 -21t15.5 -22l68 -65q37 -37 50 -83t13 -99l-4 -156l-35 -16l35 -35l6 -721q-10 -88 -57 -136t-115 -61h-221l-96 96h-9q-42 39 -66 97q-20 50 -21 92 q0 7 1 14q0 16 -1 44t-1 50zM39 352l2 -174q-1 -9 -2 -19q1 -34 17 -74q20 -52 59 -87h213q63 10 107 55t52 129l-6 697l-282 -138l-2 367h131l2 -221l151 74l4 147q0 51 -12 94t-47 78l-303 -2q-35 -23 -61 -69q-21 -37 -20 -87q0 -12 1 -24l-2 -649l289 133l-2 -406h-129 l-2 250zM268 391l39 -39v23v33q-10 -4 -19 -8.5t-20 -8.5zM313 856q0 -10 1 -18.5t1 -18.5q6 4 13.5 7t15.5 8l-25 24z" />
<glyph unicode="t" horiz-adv-x="575" d="M12 1094v206h453v-12l96 -96l2 -195h-131v-125q0 -49 1 -125.5t2 -193.5t2 -282t1 -388l-190 -2l-96 96h-13l-2 1020h-16l-96 97h-13zM33 1114h125l2 -1116l162 2q-2 229 -2.5 393t-1.5 279.5t-1 189.5t-1 122t-1 77v53h131l-2 166h-411v-166z" />
<glyph unicode="u" horiz-adv-x="606" d="M14 147l2 996v157h203v-12l78 -78q0 41 1 59.5t3 30.5h195v-12l96 -96v-188l-2 -828l2 -133q-2 -90 -18.5 -125t-59.5 -35l-301 2q-33 0 -53 21l-82 80q-29 10 -44.5 48t-19.5 113zM35 147q4 -82 22.5 -113.5t53.5 -31.5l301 -2q35 0 48 31.5t15 113.5l-2 134h2v827v174 h-153q-2 -12 -3.5 -29.5t-2.5 -58.5t-1 -112.5v-193.5v-300t2 -432h-2l4 -2h-122q2 233 2 417.5v322.5v234.5v153.5h-162q0 -43 -1 -74.5t1 -60.5v4z" />
<glyph unicode="v" horiz-adv-x="753" d="M12 1300h201q0 -10 2 -14l94 -94q16 -129 31.5 -238.5t28.5 -205.5q16 113 35.5 251t41.5 301h199l-2 -12l98 -96l-184 -1309h-250l-96 97h-12zM35 1280l182 -1280h225l181 1280h-158q-27 -188 -47.5 -337.5t-36.5 -267.5t-29.5 -207t-21.5 -155q-10 66 -22.5 155 t-29 206t-37 267.5t-46.5 338.5h-160z" />
<glyph unicode="w" horiz-adv-x="1185" d="M14 1300h201l2 -14l94 -94l60 -451q16 123 35.5 264.5t42.5 294.5l194 -2l2 -14l94 -94l60 -445q16 113 35.5 251.5t42.5 301.5h198l-2 -12l98 -96l-184 -1309h-250l-96 96h-12l-29 195q-12 -74 -22.5 -146.5t-18.5 -140.5l2 -2h-252l-96 97h-12zM37 1280l182 -1280h225 l101 711l102 -713h225l181 1280h-158q-27 -188 -47.5 -337.5t-36.5 -267.5t-29.5 -207t-21.5 -155l-135 967h-2l2 2h-158q-51 -371 -84 -603.5t-51 -363.5l-135 967h-160z" />
<glyph unicode="x" horiz-adv-x="649" d="M14 1300h213l2 -16l84 -84q4 27 6.5 52.5t6.5 47.5h213l-2 -10l98 -98l-100 -602q10 -78 21 -169t22.5 -185.5t22.5 -184.5t22 -168h-187l-96 97q-4 -27 -8 -51.5t-8 -51.5l-187 4l-96 96h-12l108 719q-16 70 -30.5 146t-30.5 151q-16 78 -31.5 157t-30.5 150zM41 1280 l117 -582l-107 -700l158 -4l84 510l53 -504h158l-86 692l98 588h-172l-51 -424l-84 424h-168z" />
<glyph unicode="y" horiz-adv-x="634" d="M16 1300h199v-12l86 -86v98h199v-12l96 -96l14 -1139q1 -16 1 -30q0 -47 -14 -81q-19 -44 -67 -63l-221 4q-14 0 -47 10.5t-67 45.5l-66 63q-31 16 -61.5 54t-42.5 106l198 180v-18l88 -88q-2 39 -2 75.5v75.5q-2 16 -2 34.5v39.5q-47 -20 -91 -36.5t-85 -33.5l-98 96 q-4 -2 -5 -2t-5 -2zM37 1280l6 -764l285 115l6 -477h-129l-2 143l-156 -143q10 -49 32.5 -79t47.5 -47.5t47.5 -22.5t32.5 -5l215 -4q74 30 74 122q0 17 -2 36l-15 1126h-157l6 -483l-131 -54l-2 537h-158z" />
<glyph unicode="z" horiz-adv-x="618" d="M14 -20l219 1030h-108l-96 96h-13l-2 194h496l-2 -12l96 -96l-217 -1018q31 0 61.5 1t59.5 1v-12l96 -96v-183l-479 -2l-96 97h-15zM35 1280l2 -154h244l-240 -1126l446 2v154l-243 -4l239 1128h-448z" />
<glyph unicode="{" horiz-adv-x="604" d="M14 588l146 104v611l332 -3v-12l96 -96l-2 -184h-133l2 -394q-31 -16 -59.5 -36.5t-59.5 -42.5q-41 -33 -100 -70q2 -4 4 -6t4 -6q29 -31 56.5 -56.5t43.5 -42.5q4 -4 4 -14l94 -92q2 -2 3 -10.5t2.5 -39t2.5 -94t1 -178.5h34v-12l97 -96v-180h-316l-96 96h-12l2 680 q-23 27 -49.5 57.5t-49.5 58.5q-10 12 -22 26.5t-25 31.5zM43 584l137 -164l-2 -666h287v152h-129q-2 162 -3 249t-1 128t-1 49l-1 8l-4 4l4 -4q-18 18 -47 46t-61 60.5t-61.5 65.5t-49.5 59q72 45 122 85t105 69l-2 399h133l2 156l-291 2v-600z" />
<glyph unicode="|" horiz-adv-x="333" d="M16 -350l4 1650h199v-12l96 -96v-64q-2 -23 -2 -55.5v-79.5v-115.5t4 -162.5v-199v-251t-2 -263q-2 -106 -3 -221t-1 -227h-186l-96 96h-13zM37 -330h158q2 313 5 601t1 546q-4 123 -4 202v129t1 78.5t1 53.5h-158z" />
<glyph unicode="}" horiz-adv-x="604" d="M16 1307l332 2v-13l96 -96v-571q12 -10 26.5 -19.5t25.5 -15.5l-4 -6l98 -99l-141 -174v-677h-316l-96 96h-12v192h125v187v144t-3 62q0 18 3 23h-7l27 27q37 35 90 87t94 99q-49 37 -96 63l-88 87q-8 4 -20 12l2 297h-25l-96 96h-13zM37 1286l2 -156h133l-2 -401 q55 -29 105.5 -68.5t121.5 -85.5q-20 -29 -52 -62.5t-64.5 -66t-63.5 -61.5t-49 -47q-2 0 -1 -7t2 -47t1 -128v-250h-125v-152h287v668l135 166l-139 98v602z" />
<glyph unicode="~" horiz-adv-x="626" d="M20 485v263q-4 86 12.5 142t53.5 68h221v-12l49 -53l2 65h97q14 0 19 -3t11 -19q0 -2 1 -4t1 -4l84 -82q6 -6 17 -29q2 -4 4 -9t6 -13l2 -72l2 -295q2 -20 -12.5 -43t-39 -40t-53 -27.5t-51.5 -6.5h-120l-66 64l2 -49l-2 -25q-25 4 -56.5 17.5t-53.5 35.5l-74 74 q-20 10 -35.5 25.5t-20.5 31.5zM41 492q10 -29 44 -48.5t58 -23.5l2 8l-2 184l-26 -4l2 144h119v-324h108q20 -4 47 5t48.5 23.5t34.5 33t9 36.5l-2 299l-2 70q-10 20 -13 28.5t-5 11.5t-6 3h-15h-63l-2 -186h31l-2 -140h-119v326h-195q-29 -10 -42 -61.5t-9 -128.5v-256z " />
<glyph unicode="&#xa1;" horiz-adv-x="333" d="M16 530h205v-12l96 -96l-2 -879h-172l-96 97h-8l-19 18q-2 55 -2 115.5v146.5v236v169t-2 205zM16 821.5v59.5v77l203 3v-13l96 -96l2 -182h-190l-96 96h-13q-2 23 -2 55.5zM36 858q-1 -37 1 -72h164l-2 154l-162 -2q0 -43 -1 -80zM37 510q2 -203 2 -339v-230.5v-159 t2 -121.5h158l2 850h-164z" />
<glyph unicode="&#xa2;" d="M16 -23v1323l150 -2q0 18 1 38t1 40v86h176v-12l96 -96v-82q6 -10 12.5 -17.5t10.5 -13.5l55 -53q37 -39 51.5 -66.5t20.5 -48.5q4 -16 8 -22v-207h-186l-97 96h-4v-600h191v-12l96 -97v-188q-2 -90 -18.5 -125t-59.5 -35h-80q0 -41 -2 -87t-2 -83l-166 2l-96 97h-12v69 h-37l-96 96h-13zM37 -2l145 2v-168l137 -2l5 170h94q35 0 48 31.5t15 113.5v174h-157v-165h-129v970h127l2 -163h157v188q-4 8 -8 20.5t-10 28.5t-18.5 35.5t-34.5 42.5h-84l-2 166h-136l-2 -164l-149 2v-1282z" />
<glyph unicode="&#xa3;" horiz-adv-x="1069" d="M14 -145q6 152 25.5 311.5t48.5 300.5q27 145 90.5 309t149.5 318q31 59 67.5 119.5t67.5 107.5q6 -10 11 -17.5t11 -15.5l80 -80q209 -299 329 -625.5t161 -686.5l-25 -9l-98 99l-8 -4q-53 92 -99.5 160.5t-89.5 117.5q-129 -31 -272.5 -159t-312.5 -353l-27 8l-94 94z M35 -141q346 463 602 520q125 -82 301 -377q-39 354 -155.5 672.5t-319.5 609.5q-27 -41 -56.5 -90t-60.5 -109q-186 -322 -237 -622q-62 -301 -74 -604zM338 631l94 37l25 354l53 -354l102 -25l-88 -59l27 -109l-74 90l-57 -90v105z" />
<glyph unicode="&#xa4;" horiz-adv-x="1134" d="M16 1143l138 84l26 -8l13 -25l63 -61q14 0 26.5 -1.5t20.5 -1.5q14 0 38 -1t38 -1l387 2v6.5t2 8.5t3 10t3 10q2 6 3 15.5t5 17.5q4 10 7.5 23.5t5.5 19.5l182 -94l-2 -10l96 -97l-47 -182q0 -141 -1 -279.5t-1 -279.5l-2 -45q23 -43 49.5 -91t48.5 -91l-147 -88l-97 96 l-8 -4q-6 10 -15 29.5t-20 35.5q-117 0 -227 -1t-227 -1q-10 -35 -20.5 -77t-20.5 -74l-168 88l-86 84l-25 14l49 195v21t3 20q0 8 1 20t1 21l6 499q-23 43 -50.5 97.5t-50.5 95.5zM43 1133l94 -179l-6 -503h2l-6 -89l-45 -178l141 -73q10 35 19.5 71.5t19.5 73.5l529 2 q20 -39 41.5 -77t41.5 -75l123 74l-94 174l2 47l2 564l45 172l-143 73q-6 -25 -13.5 -50t-13.5 -50l-403 -2v2l-162 2h-2q-12 23 -25.5 46.5t-25.5 47.5zM289 420v534h10v2h461l-4 -536h-467zM406 440h329v124t2 124v70t2 82h-333v-400zM907 958v7q-4 -4 0 -7z" />
<glyph unicode="&#xa5;" horiz-adv-x="698" d="M16 1300h199v-12l86 -86v98h199v-12l96 -96l6 -621l80 -77l2 -140h-80v-22l80 -78v-139h-74v-62q6 -66 -13 -110.5t-67 -63.5l-221 4q-14 0 -47 10.5t-67 45.5l-66 63q-31 16 -61.5 54t-42.5 106l198 180v-18l27 -27l2 65h59v37l-45 45q-35 -14 -68.5 -27.5t-66.5 -25.5 l-98 96q-4 -2 -5 -2t-5 -2zM37 1280l6 -764l285 115l2 -49l-58 -2v-111h58l2 -127v-2v2h-60l-4 -113h66v-75h-129l-2 143l-156 -143q10 -49 32.5 -79t47.5 -47.5t47.5 -22.5t32.5 -5l215 -4q88 35 72 158v77h73v111h-75l-3 4l-2 117v8h80l-2 111h-78l-8 698h-157l6 -483 l-131 -54l-2 537h-158zM567 469l13 2h-13v-2z" />
<glyph unicode="&#xa6;" horiz-adv-x="333" d="M16 -350v710h203v-12l96 -96q0 -78 -1 -165t-1 -169q-2 -86 -2 -180v-184h-186l-96 96h-13zM18 588l2 712h199v-12l96 -96v-348v-158t2 -194h-190l-96 96h-13zM37 -330h158q0 176 2 343t2 327h-162v-670zM39 608h162q-2 135 -2 235.5v178.5v139.5v118.5h-158z" />
<glyph unicode="&#xa7;" horiz-adv-x="624" d="M16 1161v91v79q10 92 58.5 141.5t120.5 61.5h225q10 -10 19.5 -22.5t19.5 -24.5l65 -66q39 -39 60.5 -94t15.5 -98v-42t1 -49.5t1 -49v-39.5l-47 -23l47 -45l-2 -266q2 -10 3 -24.5t1 -26.5l-4 -129v-101l4 -698q-10 -88 -57 -136.5t-115 -60.5h-221l-96 96h-9 q-41 37 -64.5 96.5t-18.5 106.5q0 16 -1.5 44t-1.5 50v91l46 20l-35 35q-4 -2 -5 -2t-6 -2v276q-2 10 -2 25.5v27.5l5 119v111q-2 74 -3.5 168t-1.5 180q0 39 -1 86t-1 94zM37 1329l6 -696v-111l-4 -119v-26t2 -25v-246l274 125h15v-395l-131 4v244l-158 -74l2 -174 q-6 -41 14.5 -93t57.5 -87h213q63 10 107 55t52 129l-4 697h-2l2 100l4 129q0 12 -1 24.5t-3 24.5l2 248l-276 -127h-14l2 397l129 -4l2 -244l157 74l-2 174q6 41 -14 93.5t-57 86.5h-213q-63 -10 -107.5 -55t-54.5 -129zM199 403v304l118 59h9l2 -305l-121 -58h-8zM272 47 l37 -37v53q-10 -4 -18 -8t-19 -8zM311 1004q10 4 20.5 9t20.5 9l-35 35l-4 -2q-2 -12 -2 -24.5v-26.5z" />
<glyph unicode="&#xa8;" horiz-adv-x="593" d="M16 1104v194h203v-12l57 -57v69h205v-12l97 -96v-82q0 -20 -1.5 -48t-1.5 -50l-190 -2l-70 69q-2 -16 -2 -33.5v-33.5l-188 -2l-96 96h-13zM37 1124l160 2q0 43 1 80t1 72h-162v-154zM297 1124l162 2q0 43 1 80t1 72h-164v-154z" />
<glyph unicode="&#xa9;" horiz-adv-x="1265" d="M16 1130q4 6 6.5 9.5t4.5 7.5q2 2 2 4t2 4q6 12 14 27.5t25.5 34t47 39t77.5 44.5h442l364 3q55 -35 83 -62t38 -49l66 -64q23 -23 32 -40t13 -33t14 -27l2 -874q-6 -53 -15 -88t-28.5 -54.5t-49.5 -27t-75 -7.5h-227l-549 5q-47 -2 -79.5 5t-55.5 29l-88 88 q-57 39 -57 154q-2 96 -2 216t-3 218q-2 111 -3 219.5t-1 218.5zM37 1124l8 -866q0 -51 9 -83t28.5 -49t49.5 -22.5t71 -5.5l549 -4v4l227 -4q41 0 68.5 7.5t45 25.5t26.5 50t14 81l-3 866q-10 10 -13 25.5t-14 36t-35 44t-73 52.5l-358 -2v2l-438 -2q-53 -29 -82 -52.5 t-44.5 -43t-21.5 -34.5t-14 -26zM195 1124h780l4 -866h-780zM311 1008l4 -729h643q0 104 -1 205.5t-1 205.5q-2 72 -2 154v164h-227q35 -16 46 -31.5t15 -22.5h-2q2 -4 5.5 -5t5.5 -3l4 -4v-6l65 -66q4 -6 13 -14l18 -18l-2 -107h-170l-76 76h-6q0 -63 -1 -120.5t-1 -115.5 h156v-12l96 -96l-4 -96q4 -47 -11.5 -63.5t-56.5 -16.5l-350 2l-96 96h-13l7 623h-58zM383 406l336 -3q31 0 43 13.5t10 52.5l4 82h-139v-76h-113l2 449l113 -2l-2 -74h141l2 84q-4 2 -7 8t-9 13.5t-17.5 16.5t-31.5 21l-326 4z" />
<glyph unicode="&#xaa;" horiz-adv-x="620" d="M20 1188q-6 59 93 112l288 -2q37 -12 56.5 -27.5t31.5 -37.5l78 -78q14 -14 21.5 -32.5t15.5 -41.5v-499h-186l-96 96h-13l-2 172h-2q2 -63 3 -135t3 -133h-180l-96 96h-12zM41 1188l2 -490h152l-7 267l138 18l4 -285h157v482q-10 35 -26.5 58.5t-65.5 39.5l-278 2 q-39 -23 -58.5 -43t-17.5 -49zM190 1202h136l-2 -143l-131 -21z" />
<glyph unicode="&#xab;" horiz-adv-x="890" d="M14 451l293 503l195 2l-6 -10l53 -55l37 63l194 2l-6 -10l98 -98l-280 -496l282 -469h-188l-96 97h-10l-248 405l-19 -33l283 -469h-188l-97 97h-10zM39 453l274 -453h154l-272 453l272 483l-148 -2zM315 453l277 -453h153l-272 453l272 483l-147 -2z" />
<glyph unicode="&#xac;" horiz-adv-x="1013" d="M12 762l2 196h887v-12l96 -96l-2 -389q0 -43 -38.5 -60.5t-143.5 -17.5l-96 96h-12l-3 187h-581l-96 96h-13zM33 782h690v-104l2 -2v-176h6q84 0 116 14t32 49l2 375h-846z" />
<glyph unicode="&#xad;" horiz-adv-x="686" d="M16 590v41q76 0 143.5 1t134 1h134.5h145v-12l97 -97v-188l-537 -2l-96 96h-12v160h-9zM23 610l22 2v-161l508 2v159h-141.5h-125t-125 -1t-138.5 -1z" />
<glyph unicode="&#xae;" horiz-adv-x="1265" d="M16 1130q4 6 6.5 9.5t4.5 7.5q2 2 2 4t2 4q6 12 14 27.5t25.5 34t47 39t77.5 44.5h442l364 3q55 -35 83 -62t38 -49l66 -64q23 -23 32 -40t13 -33t14 -27l2 -874q-6 -53 -15 -88t-28.5 -54.5t-49.5 -27t-75 -7.5h-227l-549 5q-47 -2 -79.5 5t-55.5 29l-88 88 q-57 39 -57 154q-2 96 -2 216t-3 218q-2 111 -3 219.5t-1 218.5zM37 1124l8 -866q0 -51 9 -83t28.5 -49t49.5 -22.5t71 -5.5l549 -4v4l227 -4q41 0 68.5 7.5t45 25.5t26.5 50t14 81l-3 866q-10 10 -13 25.5t-14 36t-35 44t-73 52.5l-358 -2v2l-438 -2q-53 -29 -82 -52.5 t-44.5 -43t-21.5 -34.5t-14 -26zM195 1124h780l4 -866h-780zM311 1008l4 -729h643q0 104 -1 205.5t-1 205.5q-2 72 -2 154v164h-247q29 -14 41 -45l77 -78q18 -20 27 -56l-2 -100q0 -4 -1 -6t-1 -6q-2 -29 -9.5 -51.5t-43.5 -44.5q-8 0 -17 -5q-18 -8 -59 -10q-4 0 -31 -6 q27 -41 50.5 -79t58.5 -87q16 -23 40.5 -60.5t47.5 -72.5l-154 -4l-94 94q0 -25 1 -48.5t1 -45.5h-152l-96 96h-12l-2 615h-66zM397 1004l2 -590h123l-2 176l117 -176l119 4q-37 57 -63.5 96t-48 71.5t-40 61.5t-41.5 64q16 4 32.5 8t20.5 4q29 4 46.5 8t25.5 6q33 18 37 42 t8 52l2 97q-10 39 -32.5 56t-81.5 22zM514 934h102v-123l-98 -18z" />
<glyph unicode="&#xb0;" horiz-adv-x="616" d="M16 934v12l2 230l5 8v12q2 27 11 60.5t52 50.5h322q37 0 56 -14.5t30 -37.5l79 -79l-6 4q4 -4 6 -4q20 -20 23.5 -50t1.5 -55q-2 -63 -5 -137t-5 -137q-2 -35 -15.5 -52.5t-60.5 -17.5h-322q-29 0 -45 16l-84 82q-33 10 -38 41t-7 68zM36 946q1 -6 1 -12v6v16 q-2 -4 -1 -10zM37 934q2 -35 8 -62.5t43 -27.5h322q37 0 48 13t13 42l10 275v35.5t-6 37t-21.5 28.5t-45.5 11h-316q-23 -8 -32 -25.5t-13 -36t-4 -33.5t-4 -17zM203 956l4 218h110l-10 -218h-104z" />
<glyph unicode="&#xb1;" horiz-adv-x="911" d="M14 201q20 0 44 -1t46 -1h80l123 2v149h-176l-96 96h-12l4 199l280 2v137q0 37 1 76t1 74h203v-12l96 -97v-178q10 0 21.5 -1t21.5 -1q29 0 76 -1t72 -1v-12l96 -96l-2 -185h-285q-2 -43 -2 -81v-74q47 -2 97.5 -1t97.5 1v-13l96 -96v-188h-772l-96 96h-13zM35 180 l2 -166h743v160h-147.5t-143.5 2v6v143.5t3 141.5q84 2 147 1t137 -1l2 156l-4 4h-282v286h-162l-2 -286l-281 -2l-4 -158h285v-287h4q0 -2 -2 -2q-74 0 -146.5 1t-148.5 1z" />
<glyph unicode="&#xb2;" horiz-adv-x="632" d="M16 1212q2 47 33 65.5t62 22.5v5h249q119 0 148 -64l80 -80q33 -33 22 -94q-2 -33 -5 -67.5t-5 -67.5q0 -76 -68 -94l84 -82l-4 -185l-483 -6l-96 97h-13l5 278q-6 33 18.5 57.5t60.5 40.5l-73 76h-13zM37 1212l2 -77h156l6 75l137 2l-10 -174h-121q-23 0 -53.5 -5 t-57 -16t-42 -28.5t-9.5 -42.5l-4 -264l455 6l4 156h-297v100l170 4q59 4 84.5 22.5t25.5 63.5l11 137q20 113 -134 113h-243q2 0 4 -1t4 -1q-12 0 -26.5 -4t-28 -11t-23.5 -20.5t-10 -34.5z" />
<glyph unicode="&#xb3;" horiz-adv-x="630" d="M27 676v125l172 39l-6 6q-4 0 -6.5 -1t-4.5 -1v55l-47 -10l-98 96l-10 -2v191q-4 27 7 47t27.5 35.5t35 24.5t30.5 11l195 2q41 -2 69.5 -10t50 -21.5t39 -33t37.5 -43.5v-2l55 -56q18 -20 41 -47l-6 -237q-2 -57 -3 -127t-3 -125q-12 -51 -67.5 -77t-133.5 -32l-204 -4 q-35 14 -45 27l-78 78q-37 18 -42 38.5t-5 53.5zM47 692q0 -35 3 -55.5t46 -40.5l201 4q74 6 126 29.5t62 68.5l7 248h2l4 234q-18 23 -33.5 39t-35 27t-45.5 18.5t-62 9.5l-193 -2q-10 -2 -25.5 -9.5t-30 -19.5t-22.5 -28.5t-4 -36.5v-168l156 41l6 125l115 4v-148 l-121 -41v-119l121 46l2 -222h-123v123l-156 -37v-90zM301 754l4 -4v4h-4z" />
<glyph unicode="&#xb4;" horiz-adv-x="493" d="M14 1098l146 280h192l33 -22q-4 -4 -4 -6l98 -99q-31 -59 -58.5 -112.5t-49.5 -94.5q-4 -8 -11.5 -22t-11.5 -21h-221l-96 97h-17zM47 1118h191q25 47 54.5 102.5t65.5 127.5l-12 10h-174z" />
<glyph unicode="&#xb5;" horiz-adv-x="628" d="M23 -188q0 37 1 94t3 98q2 49 3 98.5t3 96.5v379q0 96 1 194t1 193h205v-13l71 -71v44t2 40h201v-13l96 -96l-2 -680l2 -133q-2 -90 -18.5 -125t-59.5 -35l-114 2l98 -94q0 -2 -1 -3t-1 -3l98 -98q-10 -55 -34.5 -87t-51 -47.5t-51 -18.5t-35.5 -3l-221 -2l-6 2 q-25 10 -41 29l-72 71q-45 23 -63.5 72t-13.5 109zM43 -190q-16 -123 74 -164l221 2q10 0 31.5 3t46 16.5t46 41t32.5 76.5l-160 154v-136l-131 -2v201l227 -2q35 0 48.5 31.5t15.5 113.5l-2 134h2v665h-160q-2 -123 -1 -313.5t3 -476.5h-2l4 -2h-123q2 258 3 453.5t1 338.5 h-164l-2 -745v2z" />
<glyph unicode="&#xb6;" horiz-adv-x="931" d="M14 584l4 725h396.5t404.5 -2v-13l96 -96v-188h-116v-289v-369.5t-2 -376.5v-96t-1 -114.5t-1 -115v-93.5h-197l-76 75v-77h-198l-97 96h-12l4 837h-96l-96 97h-13zM35 604h207l-6 -934h170l-3 1456h3l-5 2l121 -2l-12 -1454h168q2 383 4 740.5t0 713.5h117v160 q-197 2 -384.5 2h-375.5z" />
<glyph unicode="&#xb7;" horiz-adv-x="331" d="M16 795h203v-13l96 -96v-180l-188 -2l-96 96h-13zM37 774l2 -153l160 2v151h-162z" />
<glyph unicode="&#xb8;" horiz-adv-x="466" d="M14 -168h146q0 23 -1 46.5t-1 45.5v96h194v-12l97 -96l2 -205q-4 -53 -14.5 -88t-29 -54.5t-48 -26.5t-74.5 -7h-162l-96 96h-13v205zM35 -188v-164h147q41 0 69 7t45 25.5t25.5 50t12.5 81.5l-2 188h-154l2 -188h-145z" />
<glyph unicode="&#xb9;" horiz-adv-x="464" d="M14 1092v208h332v-12l96 -96l7 -621h-183l-96 97h-12l-2 327h-33l-96 97h-13zM35 1112h141l2 -424h154l-6 592h-291v-168z" />
<glyph unicode="&#xba;" horiz-adv-x="608" d="M16 1135l2 4v22q0 33 7.5 78t52.5 68h313q35 0 54.5 -15.5t29.5 -38.5l78 -77q25 -25 29 -68t4 -78l4 -368q2 -47 -12.5 -69t-61.5 -22h-313q-27 0 -41 15l-86 84q-35 10 -41 47t-8 84q-2 10 -3 22.5t1 28.5zM37 1133l10 -322q2 -47 9 -85t44 -38h314q37 0 49 18.5 t10 57.5l-4 369q0 23 -1 49t-8 49.5t-22.5 39t-46.5 15.5h-309q-23 -10 -31 -33.5t-10 -49t-2 -46t-2 -24.5zM45 819v23q-2 -10 2 -31zM201 1133h108v-291h-102z" />
<glyph unicode="&#xbb;" horiz-adv-x="894" d="M16 -20l287 475q-35 59 -69.5 121.5t-69.5 123.5v-2q-37 63 -74 131t-70 127l195 -2l14 -24l84 -84l248 -426l21 35q-35 59 -70 121.5t-70 123.5v-2q-37 63 -73.5 131t-69.5 127l195 -2l14 -24l84 -84l289 -498l-283 -465h-188l-58 58l-33 -58h-188l-96 97h-19zM55 0h154 l276 453l-282 481l-148 2l273 -483zM334 0h153l275 453l-281 481l-147 2l272 -483z" />
<glyph unicode="&#xbc;" horiz-adv-x="1372" d="M16 1092v208h332v-12l96 -96l5 -459l182 572l200 2q-2 -4 -2 -6.5t-2 -6.5l99 -96q-4 -16 -12.5 -40.5t-16.5 -47.5q-16 -47 -45 -139t-76 -256q-10 -29 -17 -54.5t-16 -48.5l422 -2v-12l97 -96l2 -78v-148l94 -92l-2 -180h-90q0 -29 -2 -56.5t-2 -53.5l-189 -3l-96 97 h-12v18q-43 -2 -85 -2h-83l-97 96h-12v109l-2 221q-18 -55 -35.5 -108.5t-37 -116t-44 -139t-57.5 -177.5l-193 -2l-96 97h-14l186 587h-127l-96 97h-12l-2 327h-33l-96 97h-13zM37 1112h141l2 -424h154l-6 592h-291v-168zM238 4l161 2q35 104 59.5 181t44 139.5t37 115 t35 108.5t38 120.5t46.5 150.5q35 125 59.5 204t41 129t27 79t16.5 53l-158 -2zM707 557l2 -348v-88l276 2v-115l160 2l4 111h90l2 151h-92l-2 254h2l-4 64l-438 2v-35zM874 440h101l10 -166h-108z" />
<glyph unicode="&#xbd;" horiz-adv-x="1312" d="M16 1092v208h332v-12l96 -96l5 -459l182 572l200 2q-2 -4 -2 -6.5t-2 -6.5l99 -96q-4 -16 -12.5 -40.5t-16.5 -47.5q-16 -47 -45 -139t-76 -256q-10 -33 -18 -59.5t-17 -51.5q10 6 23.5 9t26.5 5v5h251q119 0 148 -64l80 -80q33 -33 22 -94q-4 -33 -6 -68.5t-6 -68.5 q-4 -35 -18.5 -57.5t-49.5 -32.5l84 -84l-2 -185l-485 -6l-96 97h-13l2 280q-4 33 21 56.5t59 37.5l-73 78h-13v27q-20 -61 -38.5 -117.5t-39 -121t-46 -144.5t-60.5 -187l-193 -2l-96 97h-14l186 587h-127l-96 97h-12l-2 327h-33l-96 97h-13zM37 1112h141l2 -424h154 l-6 592h-291v-168zM238 4l161 2q35 104 59.5 181t44 139.5t37 115t35 108.5t38 120.5t46.5 150.5q35 125 59.5 204t41 129t27 79t16.5 53l-158 -2zM717 453h157l9 75l137 2l-10 -174h-121q-23 0 -53.5 -5t-57 -16t-44 -28.5t-11.5 -42.5l-2 -264l457 6l2 156h-297l2 100 l170 4q59 4 83.5 22.5t24.5 63.5l13 137q20 113 -134 113h-245q2 0 4 -1t4 -1q-25 -2 -56.5 -15.5t-31.5 -54.5v-77z" />
<glyph unicode="&#xbe;" horiz-adv-x="1472" d="M23 1180q-4 25 7 45t28.5 35.5t36 24.5t30.5 11l194 2q78 -4 116 -30.5t79 -79.5l55 -55q10 -10 20.5 -22.5t20.5 -27.5l-6 -174l127 396l201 2q-2 -4 -2 -6.5t-2 -6.5l98 -96q-4 -16 -12 -40.5t-17 -47.5q-16 -47 -44.5 -139t-75.5 -256q-10 -29 -17.5 -54.5 t-15.5 -48.5l422 -2v-12l96 -96l2 -78v-148l94 -92l-2 -180h-90q0 -29 -2 -56.5t-2 -53.5l-188 -3l-97 97h-12v18q-43 -2 -85 -2h-83l-96 96h-13v109l-2 221q-18 -55 -35.5 -108.5t-37 -116t-44 -139t-57.5 -177.5l-192 -2l-96 97h-15l164 514q-16 -4 -34.5 -6.5t-39.5 -4.5 l-206 -4q-33 16 -43 27l-78 78q-37 20 -43 40.5t-4 49.5v127l170 39l-7 6q-4 0 -6 -1t-4 -1v55l-45 -10l-98 96l-10 -2zM43 1182l2 -168l156 41l6 125l112 4v-148l-118 -41l-2 -118l120 45l3 -222h-123l2 123l-156 -37v-90q0 -35 2 -55t45 -41l203 4q72 6 124 29.5t62 68.5 l6 248h2l5 234q-35 45 -68 67.5t-107 26.5l-192 -2q-10 -2 -25.5 -9t-30 -19.5t-23.5 -29t-5 -36.5zM299 758l2 -2v2h-2zM338 4l162 2q33 104 58.5 181t45 139.5t36.5 115t34.5 108.5t38 120.5t47.5 150.5q35 125 59.5 204t41 129t26.5 79t16 53l-158 -2zM807 557l2 -348 v-88l276 2v-115l160 2l4 111h90l2 151h-92l-2 254h2l-4 64l-438 2v-35zM975 440h100l10 -166h-108z" />
<glyph unicode="&#xbf;" horiz-adv-x="620" d="M20 520h207v-12l97 -96l-2 -318l-3 -90l183 -4v-12l96 -97l8 -163q0 -53 -14 -99.5t-53 -85.5l-314 4q-18 12 -35 29l-67 68h-4q-41 27 -71 78t-23 120q0 82 -1 166t-1 170q-2 76 -2.5 172t-0.5 170zM25 762v192l202 2v-12l97 -96l2 -182h-193l-96 96h-12zM41 500l4 -658 q-4 -63 21.5 -109t60.5 -69l303 -4q35 35 47 78t12 92l-8 150l-151 4l2 -154l-131 2l4 365l2 303h-166zM45 782h164l-2 154l-162 -2v-152z" />
<glyph unicode="&#xc0;" horiz-adv-x="626" d="M16 1667l29 29h193l32 -43l68 -66l215 -268h-227l-97 96h-8q-10 14 -23.5 29.5t-25.5 32.5q-10 14 -22.5 28.5t-22.5 28.5q-8 10 -16.5 20.5t-16.5 20.5q-16 23 -38.5 46.5t-39.5 45.5zM27 1057q-2 61 14 121.5t63 113.5l299 2q43 -31 64 -69l59 -58h-2l8 -6 q37 -35 50.5 -85t23.5 -115l4 -1078h-186l-96 97h-6v-97h-185l-96 97h-12zM43 1665q59 -72 104.5 -127t81.5 -102h193l-193 239h-176zM47 1057l2 -1057h156l-2 573l133 52v-625h158l-5 1061q-10 74 -26.5 127t-67.5 86l-282 -2q-39 -47 -53.5 -101.5t-12.5 -113.5zM203 1116 h131l-2 -328l-127 -49z" />
<glyph unicode="&#xc1;" horiz-adv-x="618" d="M18 1057l2 -1077h13l96 -97h184v97h6l97 -97h186l-4 1078q-10 66 -23.5 115.5t-50.5 84.5l-8 6h2l-59 58q-20 39 -64 69l-299 -2q-47 -53 -63.5 -113.5t-14.5 -121.5zM39 1057q-2 59 12.5 113.5t52.5 101.5l283 2q51 -33 67.5 -86t26.5 -127l4 -1061h-157v625l-133 -52 l2 -573h-156zM86 1415l147 281h197l27 -27q-2 -2 -2 -3t-2 -3l98 -96q-31 -59 -57.5 -111.5t-49.5 -93.5q-4 -8 -11 -22.5t-11 -20.5h-223l-97 96h-16zM119 1436h192q25 47 54.5 102t66.5 127l-10 10h-176zM195 1116l2 -377l127 49l2 328h-131z" />
<glyph unicode="&#xc2;" horiz-adv-x="665" d="M16 1559q14 10 41 34q29 23 62 49.5t57 45.5q10 8 20.5 16t20.5 16q18 16 41 35t43 35l252 -201v-8l96 -96v-182l-246 155l-241 -158l-99 97l-10 -6l2 145v4l-16 19h-23zM45 1057q-2 61 14.5 121.5t63.5 113.5l299 2q43 -31 63 -69l66 -64q37 -35 50 -85t24 -115l4 -1078 h-187l-96 97h-6v-97h-184l-97 97h-12zM66 1057l2 -1057h155l-2 573l133 52v-625h158l-4 1061q-10 74 -26.5 127t-67.5 86l-283 -2q-39 -47 -53.5 -101.5t-11.5 -113.5zM72 1575l6 6v-10l-2 -8l2 -4v-3l-2 -20l-2 -106l227 149l231 -147v149l-231 184q-76 -61 -132 -106 t-97 -80v-4zM221 1116h131l-2 -328l-127 -49z" />
<glyph unicode="&#xc3;" horiz-adv-x="636" d="M18 1057l2 -1077h13l96 -97h184v97h6l97 -97h186l-4 1078q-10 66 -23.5 115.5t-50.5 84.5l-8 6h2l-59 58q-20 39 -64 69l-299 -2q-47 -53 -63.5 -113.5t-14.5 -121.5zM31 1468l2 146q2 47 10 76.5t53 38.5l264 -3l-2 -12l15 -12l4 27h104q8 0 10.5 -2.5t16.5 -14.5 q2 0 2 -2q0 -4 2 -4q2 -4 8 -10v-4l74 -74q0 -2 2 -3t4 -5l4 -2q2 -2 3 -6.5t5 -8.5l4 -2l-4 -43v-151q6 -25 -23.5 -48.5t-80.5 -19.5h-209l-29 27l-6 -31h-45q-41 2 -65 27l-78 75q-29 12 -45 41zM39 1057q-2 59 12.5 113.5t52.5 101.5l283 2q51 -33 67.5 -86t26.5 -127 l4 -1061h-157v625l-133 -52l2 -573h-156zM51 1477q18 -33 66 -35h33l20 96h-20v76h88l-25 -168h193q43 -4 69.5 13.5t20.5 35.5v156l4 37q-8 10 -11.5 14t-5.5 6t-6 1t-14 -1h-68l-14 -94h27v-76h-91l21 168l-240 2q-31 -4 -37 -28.5t-8 -65.5zM195 1116l2 -377l127 49 l2 328h-131z" />
<glyph unicode="&#xc4;" horiz-adv-x="618" d="M18 1057q-2 61 14.5 121.5t63.5 113.5l299 2q43 -31 64 -69l59 -58h-2l8 -6q37 -35 50.5 -85t23.5 -115l4 -1078h-186l-97 97h-6v-97h-184l-96 97h-13zM33 1616h205v-12l57 -62v74h205v-12l96 -97v-82q0 -20 -1 -47.5t-1 -50.5l-188 -2l-72 72q-2 -16 -2 -35v-35l-189 -2 l-96 96h-12zM39 1057l2 -1057h156l-2 573l133 52v-625h157l-4 1061q-10 74 -26.5 127t-67.5 86l-283 -2q-39 -47 -53 -101.5t-12 -113.5zM53 1595l2 -153l160 2q0 43 1 80t1 71h-164zM195 1116h131l-2 -328l-127 -49zM315 1595l2 -153l160 2q0 43 1 80t1 71h-164z" />
<glyph unicode="&#xc5;" horiz-adv-x="620" d="M16 1245v25l2 227l5 8v13q2 27 11 60.5t52 49.5h324q37 0 56 -14.5t30 -36.5l79 -80l-6 4q4 -4 6 -4q20 -20 23.5 -50t1.5 -54q-2 -66 -5 -139.5t-5 -137.5q-2 -10 -4 -21.5t-6 -21.5q10 -45 20 -112l4 -1078h-186l-96 97h-7v-99l-184 2l-96 97h-12l-3 1077 q-2 33 0.5 58.5t10.5 53.5q-6 12 -9.5 33t-5.5 43zM36 1270q1 -4 1 -8v16q-2 -4 -1 -8zM37 1255q2 -25 4 -47t14 -32q-18 -55 -14 -119l2 -1057l156 -2l-2 575l133 52v-625h157l-4 1061q-4 35 -9 63.5t-13 53.5q6 8 8 18t4 25l10 274v35.5t-6 37t-21.5 29t-45.5 11.5h-318 q-23 -8 -32 -25.5t-13 -36t-4 -34t-4 -17.5zM197 1116h131l-2 -328l-127 -49zM205 1278l4 217h110l-10 -217h-104z" />
<glyph unicode="&#xc6;" horiz-adv-x="915" d="M18 1057q-2 61 14.5 121.5t63.5 113.5l301 -2q4 -4 6 -4t4.5 -2t4.5 -2q18 6 37.5 10t48.5 8l299 5v-13l96 -96l2 -182h-287v-197q10 4 17.5 6t17.5 6q23 10 49.5 18.5t46.5 16.5l6 -20l93 -90l61 -174l-293 -107v-150.5t2 -146.5h191v-12l96 -96v-181l-307 -4h-172 l-97 97h-6v-99l-184 2l-96 97h-13zM39 1057l2 -1057l156 -2l-2 575l133 52v-625h157l-2 4h295v152h-286l-3 430l289 104l-53 148l-233 -84v376h286l-2 154l-276 -4q-29 -4 -51.5 -9t-40.5 -14q-4 4 -9.5 8.5t-11.5 8.5l-283 -2q-39 -47 -53 -101.5t-12 -113.5zM195 1116h131 l-2 -328l-127 -49z" />
<glyph unicode="&#xc7;" d="M16 -23v1323l402 -4q14 -16 24.5 -28.5t18.5 -22.5l57 -57q37 -39 51.5 -66.5t20.5 -48.5q4 -16 8 -22v-207h-186l-97 96h-4v-600h191v-12l96 -97v-188q-2 -90 -18.5 -125t-59.5 -35h-55q0 -43 1 -88t1 -88q-4 -53 -14.5 -88t-28.5 -54.5t-48 -26.5t-75 -7l-135 2l-96 96 h-13l-28 203h147v49h-51l-96 96h-13zM37 -2l158 2l2 -188h-146l25 -162l123 -2q41 0 68.5 7t45 25.5t25.5 50t12 81.5l-2 188h70q35 0 48 31.5t15 113.5v174h-157v-165h-129v970h127l2 -163h157v188q-4 8 -8 20.5t-10 28.5t-18.5 35.5t-34.5 42.5l-373 4v-1282z" />
<glyph unicode="&#xc8;" horiz-adv-x="618" d="M16 1083q2 45 7.5 82t25 64.5t55 44t99.5 22.5l301 4v-12l96 -96v-182h-287v-197q10 4 17.5 6t17.5 6q23 10 49.5 18.5t46.5 16.5l7 -20l92 -90l61 -175l-291 -106v-297h191v-12l96 -97l2 -180h-473l-96 97h-13zM33 1667l28 29h193l33 -43l67 -66l215 -268h-227l-96 96 h-8q-10 14 -23.5 29.5t-26.5 32.5q-10 14 -22 28.5t-23 28.5q-8 10 -16 20.5t-16 20.5q-16 23 -39 46.5t-39 45.5zM37 1083l4 -1083h444l-2 152h-286v430l286 104l-53 148l-233 -84v376h286v154l-278 -4q-55 -6 -88 -21.5t-50.5 -40t-22.5 -57.5t-7 -74zM59 1665 q59 -72 104.5 -127t82.5 -102h192l-192 239h-176z" />
<glyph unicode="&#xc9;" horiz-adv-x="620" d="M16 1083l4 -1103h13l96 -97h473l-2 180l-96 97v12h-191v297l291 106l-61 175l-92 90l-7 20q-20 -8 -46.5 -16t-49.5 -19q-10 -4 -17 -6t-18 -6v197h287v182l-96 96v12l-301 -4q-63 -6 -99 -22.5t-55.5 -44t-25 -64.5t-7.5 -82zM37 1083q2 41 7 74t22.5 57.5t50.5 40 t88 21.5l278 4v-154h-286v-376l233 84l53 -148l-286 -104v-430h286l2 -152h-444zM129 1415l147 281h197l27 -27q-2 -2 -2 -3t-2 -3l98 -96q-31 -59 -57.5 -111.5t-49.5 -93.5q-4 -8 -11 -22.5t-11 -20.5h-223l-97 96h-16zM162 1436h192q25 47 54.5 102t66.5 127l-10 10h-176 z" />
<glyph unicode="&#xca;" horiz-adv-x="665" d="M16 1546q14 10 41 35v2l2 -2q27 23 60 49.5t57 44.5q10 8 20.5 16.5t20.5 16.5q18 16 41 34.5t43 35.5l252 -201v-8l96 -96v-183l-246 156l-241 -158l-99 96l-10 -6l2 146l2 4l-18 18h-23zM57 1083q2 45 7.5 82t25 64.5t55 44t99.5 22.5l301 4v-12l96 -96v-182h-287v-197 q10 4 17.5 6t17.5 6q23 10 49.5 18.5t46.5 16.5l7 -20l92 -90l61 -175l-291 -106v-297h191v-12l96 -97l2 -180h-473l-96 97h-13zM72 1563l6 6v-10l-2 -9v-4l2 -2l-2 -20l-2 -107l227 150l231 -148v150l-231 184q-76 -61 -132 -106t-97 -80v-4zM78 1083l4 -1083h444l-2 152 h-286v430l286 104l-53 148l-233 -84v376h286v154l-278 -4q-55 -6 -88 -21.5t-50.5 -40t-22.5 -57.5t-7 -74z" />
<glyph unicode="&#xcb;" horiz-adv-x="620" d="M16 1083q2 45 7.5 82t25 64.5t55 44t99.5 22.5l301 4v-12l96 -96v-182h-287v-197q10 4 17.5 6t17.5 6q23 10 49.5 18.5t46.5 16.5l7 -20l92 -90l61 -175l-291 -106v-297h191v-12l96 -97l2 -180h-473l-96 97h-13zM29 1616h204v-12l58 -62v74h205v-12l96 -97v-82 q0 -20 -1 -47.5t-1 -50.5l-189 -2l-71 72q-2 -16 -2 -35v-35l-189 -2l-96 96h-12zM37 1083l4 -1083h444l-2 152h-286v430l286 104l-53 148l-233 -84v376h286v154l-278 -4q-55 -6 -88 -21.5t-50.5 -40t-22.5 -57.5t-7 -74zM49 1595l2 -153l160 2q0 43 1 80t1 71h-164z M311 1595l2 -153l160 2q0 43 1 80t1 71h-164z" />
<glyph unicode="&#xcc;" horiz-adv-x="567" d="M14 1665l31 31h191l32 -43l68 -66l215 -268h-229l-97 96h-8q-6 8 -13 17.5t-16 19.5q-23 29 -46 59.5t-52 65.5q-6 12 -18.5 23.5t-24.5 25.5q-8 10 -17.5 20.5t-15.5 18.5zM43 1665q59 -72 104.5 -127t79.5 -102h193l-193 239h-174zM229 -20v1320h199v-12l96 -96v-64 q-2 -23 -2 -55.5v-79.5v-115.5t4 -162.5q0 -129 1 -214t1 -167t-1 -187.5t-1 -261.5l-188 -2l-96 97h-13zM250 0l160 2q0 104 1 181t1 139.5v114.5v108.5t-1 121t-1 150.5q-4 123 -4 202v129t1 78.5t1 53.5h-158v-1280z" />
<glyph unicode="&#xcd;" horiz-adv-x="495" d="M16 1415l148 281h196l27 -27q-2 -2 -2 -3t-2 -3l98 -96q-31 -59 -57.5 -111.5t-48.5 -93.5q-4 -8 -11.5 -22.5t-11.5 -20.5h-223l-96 96h-17zM33 -20h12l96 -97l189 2q0 156 1 261.5t1 187.5t-1 167t-1 214q-4 94 -4 162.5v115.5v80t2 55v64l-97 96v12h-198v-1320z M49 1436h193q25 47 54.5 102t65.5 127l-10 10h-176zM53 0v1280h158q0 -25 -1 -53.5t-1 -78.5v-129t4 -202q0 -86 1 -150.5t1 -121v-108.5v-114.5t-1 -139.5t-1 -181z" />
<glyph unicode="&#xce;" horiz-adv-x="659" d="M14 1559q14 10 41 34v2l2 -2q33 29 75 63t77 62q16 14 41.5 36t44.5 38l254 -203v-8l96 -96v-182l-246 155l-239 -158l-99 97l-10 -6l2 145l2 4l-18 19h-23zM70 1575l6 6v-10l-2 -8l2 -4v-3l-2 -20l-2 -106l225 149l231 -147v149l-231 184q-76 -61 -131 -106t-96 -80v-4z M193 -20v1320h198v-12l96 -96v-64q-2 -23 -2 -55.5v-79.5v-115.5t4 -162.5q0 -129 1.5 -214t1.5 -167t-1.5 -187.5t-1.5 -261.5l-188 -2l-96 97h-12zM213 0l160 2q0 104 1 181t1 139.5v114.5v108.5t-1 121t-1 150.5q-4 123 -4 202v129t1 78.5t1 53.5h-158v-1280z" />
<glyph unicode="&#xcf;" horiz-adv-x="589" d="M14 1610h201v-15l59 -61v76h203v-15l96 -94q2 -23 2 -52.5v-55.5v-72l-190 -2l-72 72v-70l-188 -2l-96 96h-13zM35 1589l2 -153l160 2q0 43 1 79.5t-1 71.5h-162zM150 -20v1320h198v-12l96 -96v-64q-2 -23 -2 -55.5v-79.5v-115.5t4 -162.5q0 -129 1.5 -214t1.5 -167 t-1.5 -187.5t-1.5 -261.5l-188 -2l-96 97h-12zM170 0l160 2q0 104 1 181t1 139.5v114.5v108.5t-1 121t-1 150.5q-4 123 -4 202v129t1 78.5t1 53.5h-158v-1280zM295 1589l2 -153l162 2q0 43 1 79.5t-1 71.5h-164z" />
<glyph unicode="&#xd0;" horiz-adv-x="712" d="M14 588v209h99v245q0 63 1 129t1 129l401 -4q14 -16 24.5 -28.5t18.5 -22.5l57 -57q37 -39 51.5 -66.5t20.5 -48.5q4 -16 8 -22l-2 -875l2 -133q-2 -90 -18 -125t-60 -35l-395 -2l-96 96h-12v523l-88 88h-13zM35 608h100v-610l381 2q35 0 48.5 31.5t15.5 113.5l-2 134h2 v870q-4 8 -8.5 20.5t-10.5 28.5t-18.5 35.5t-34.5 42.5l-373 4l-2 -504h-98v-168zM293 154v456h94l2 166h-96v348h127v-815l2 -155h-129z" />
<glyph unicode="&#xd1;" horiz-adv-x="622" d="M16 1468l2 146q2 47 10.5 76.5t53.5 38.5l264 -3l-2 -12l14 -12l4 27h105q8 0 10 -2.5t17 -14.5q2 0 2 -2q0 -4 2 -4q2 -4 8 -10v-4l74 -74q0 -2 2 -3t4 -5l4 -2q2 -2 3 -6.5t5 -8.5l4 -2l-4 -43v-151q6 -25 -23.5 -48.5t-80.5 -19.5h-209l-29 27l-6 -31h-45 q-41 2 -66 27l-78 75q-29 12 -45 41zM18 42.5q0 -34.5 2 -62.5h13l96 -97h182v23q0 10 1 25.5t1 43.5l93 -92h190v80t-2 70l2 997q-2 55 -11.5 89t-25.5 50l-80 78q-20 51 -76 51l-299 2q-47 0 -65.5 -36.5t-18.5 -128.5v-959q-2 -14 -2 -36.5v-39.5v-57.5zM37 1477 q18 -33 65 -35h33l21 96h-21v76h88l-24 -168h192q43 -4 69.5 13.5t20.5 35.5v156l4 37q-8 10 -11 14t-5 6t-6 1t-14 -1h-68l-14 -94h26v-76h-90l21 168l-240 2q-31 -4 -37 -28.5t-8 -65.5zM39 1001h2v134q0 82 14.5 113.5t48.5 31.5l299 -2q35 0 53.5 -32t22.5 -113v-1002 l-2 4q2 -29 2 -60.5v-74.5h-162q0 57 -1 153.5t-1 234.5v322.5t2 417.5h-122l4 -2h-2q2 -254 2 -432v-300v-193.5t-1 -112.5t-2 -58.5t-1 -29.5h-154q-2 115 0 174z" />
<glyph unicode="&#xd2;" horiz-adv-x="632" d="M16 1667l29 29h193l32 -43l68 -66l215 -268h-227l-97 96h-8q-10 14 -23.5 29.5t-25.5 32.5q-10 14 -22.5 28.5t-22.5 28.5q-8 10 -16.5 20.5t-16.5 20.5q-16 23 -38.5 46.5t-39.5 45.5zM37 1159q4 4 8 25q6 20 20.5 48t55.5 68l166 -2v-2h149q14 -16 24.5 -28.5 t18.5 -22.5l58 -57q37 -39 51 -66.5t20 -48.5q4 -16 8 -22l-2 -875l2 -133q-2 -90 -18 -125t-59 -35l-62 -4l-239 6q-31 0 -48 17l-84 84q-31 10 -43 47t-14 114l-2 136q-2 100 -3 217.5t-3 220.5q-2 100 -3 219t-1 219zM43 1665q59 -72 104.5 -127t81.5 -102h193l-193 239 h-176zM57 1155l11 -872h2v-136q4 -82 17 -113.5t48 -31.5l240 -6v4h61q35 0 48.5 31.5t15.5 113.5l-2 134h2v870q-4 8 -8.5 20.5t-10.5 28.5t-18 35.5t-35 42.5h-156v2l-143 2q-23 -23 -35 -42t-18 -34.5t-10.5 -28t-8.5 -20.5zM217 1124h123v-815l2 -155h-2v-2l-113 2v155z " />
<glyph unicode="&#xd3;" d="M16 1159q0 -100 1 -219t3 -219q2 -102 3.5 -220t3.5 -218l2 -136q2 -78 14 -114.5t43 -46.5l84 -84q16 -16 47 -17l240 -6l61 4q43 0 59.5 35t18.5 125l-2 133l2 875q-4 6 -8 22q-6 20 -20.5 48t-51.5 67l-57 57q-8 10 -18.5 22.5t-24.5 28.5h-150v2l-166 2 q-41 -41 -55 -68.5t-20 -47.5q-4 -20 -9 -25zM37 1155q4 8 8 20.5t10 28t18.5 34.5t35.5 42l143 -2v-2h156q23 -23 35 -42.5t18 -35.5t10 -28.5t8 -20.5v-870h-2l2 -134q-2 -82 -15 -113.5t-48 -31.5h-62v-4l-239 6q-35 0 -48.5 32t-17.5 113v136h-2zM129 1415l147 281h197 l27 -27q-2 -2 -2 -3t-2 -3l98 -96q-31 -59 -57.5 -111.5t-49.5 -93.5q-4 -8 -11 -22.5t-11 -20.5h-223l-97 96h-16zM162 1436h192q25 47 54.5 102t66.5 127l-10 10h-176zM197 1124l10 -815v-155l112 -2v2h3l-3 155v815h-122z" />
<glyph unicode="&#xd4;" horiz-adv-x="663" d="M14 1559q14 10 41 34v2l2 -2q27 23 60 49.5t57 45.5q10 8 20.5 16t20.5 16q18 16 41 35t43 35l252 -201v-8l96 -96v-182l-246 155l-241 -158l151 -2v-2h150q14 -16 24.5 -28.5t18.5 -22.5l57 -57q37 -39 51.5 -66.5t20.5 -48.5q4 -16 8 -22l-2 -875l2 -133 q-2 -90 -18.5 -125t-59.5 -35l-61 -4l-240 6q-31 0 -47 17l-84 84q-31 10 -43 47t-14 114l-2 136q-2 100 -3 217.5t-3 220.5q-2 100 -3.5 219t-1.5 219q4 4 9 25q6 20 20 48t55 68h15l-99 97l-10 -6l2 145l2 4l-18 19h-23zM70 1575l6 6v-10l-2 -8l2 -4v-3l-2 -20l-2 -106 l227 149l231 -147v149l-231 184q-76 -61 -132 -106t-97 -80v-4zM82 1155l10 -872h2v-136q4 -82 17.5 -113.5t48.5 -31.5l239 -6v4h62q35 0 48 31.5t15 113.5l-2 134h2v870q-4 8 -8 20.5t-10 28.5t-18.5 35.5t-34.5 42.5h-156v2l-143 2q-23 -23 -35.5 -42t-18.5 -34.5 t-10 -28t-8 -20.5zM242 1124h123v-815l2 -155h-2v-2l-113 2v155z" />
<glyph unicode="&#xd5;" horiz-adv-x="622" d="M16 1468l2 146q2 47 10.5 76.5t53.5 38.5l264 -3l-2 -12l14 -12l4 27h105q8 0 10 -2.5t17 -14.5q2 0 2 -2q0 -4 2 -4q2 -4 8 -10v-4l84 -84q2 -2 3 -6.5t5 -8.5l4 -2l-4 -43v-151q6 -25 -23.5 -48.5t-80.5 -19.5h-209l-29 27l-6 -31h-45q-41 2 -66 27l-78 75 q-29 12 -45 41zM20 1159q0 -100 1.5 -219t3.5 -219q2 -102 3 -220t3 -218l2 -136q2 -78 14 -114.5t43 -46.5l84 -84q16 -16 47 -17l240 -6l61 4q43 0 59.5 35t18.5 125l-2 133l2 875q-4 6 -8 22q-6 20 -20.5 48t-51.5 67l-57 57q-8 10 -18.5 22.5t-24.5 28.5h-150v2l-166 2 q-41 -41 -55 -68.5t-20 -47.5q-4 -20 -9 -25zM37 1477q18 -33 65 -35h33l21 96h-21v76h88l-24 -168h192q43 -4 69.5 13.5t20.5 35.5v156l4 37q-8 10 -11 14t-5 6t-6 1t-14 -1h-68l-14 -94h26v-76h-90l21 168l-240 2q-31 -4 -37 -28.5t-8 -65.5zM41 1155q4 8 8 20.5t10.5 28 t18.5 34.5t35 42l143 -2v-2h156q23 -23 35 -42.5t18 -35.5t10 -28.5t8 -20.5v-870h-2l2 -134q-2 -82 -15 -113.5t-48 -31.5h-62v-4l-239 6q-35 0 -48.5 32t-17.5 113v136h-2zM201 1124l10 -815v-155l113 -2v2h2l-2 155v815h-123z" />
<glyph unicode="&#xd6;" d="M16 1159q4 4 9 25q6 20 20 48t55 68l166 -2v-2h150q14 -16 24.5 -28.5t18.5 -22.5l57 -57q37 -39 51.5 -66.5t20.5 -48.5q4 -16 8 -22l-2 -875l2 -133q-2 -90 -18.5 -125t-59.5 -35l-61 -4l-240 6q-31 0 -47 17l-84 84q-31 10 -43 47t-14 114l-2 136q-2 100 -3 217.5 t-4 220.5q-2 100 -3 219t-1 219zM23 1616h204v-12l58 -62v74h204v-12l97 -97v-82q0 -20 -1 -47.5t-1 -50.5l-189 -2l-71 72q-2 -16 -2 -35v-35l-189 -2l-96 96h-12zM37 1155l10 -872h2v-136q4 -82 17.5 -113.5t48.5 -31.5l239 -6v4h62q35 0 48 31.5t15 113.5l-2 134h2v870 q-4 8 -8 20.5t-10 28.5t-18.5 35.5t-34.5 42.5h-156v2l-143 2q-23 -23 -35.5 -42t-18.5 -34.5t-10 -28t-8 -20.5zM43 1595l2 -153l160 2q0 43 1 80t1 71h-164zM197 1124h122v-815l3 -155h-3v-2l-112 2v155zM305 1595l2 -153l160 2q0 43 1 80t1 71h-164z" />
<glyph unicode="&#xd7;" horiz-adv-x="557" d="M16 1042h211l2 -16l11 -10q2 8 2 14t2 12h200l-2 -10l99 -98l-56 -344q12 -106 27.5 -223t28.5 -222h-183l-34 33q-4 -20 -5 -33h-190l-96 97h-13l68 456zM43 262h162l39 242l24 -242h154l-53 430l53 330h-160l-18 -166l-35 166h-166l66 -324z" />
<glyph unicode="&#xd8;" horiz-adv-x="610" d="M16 1159q0 2 1 3t1 3q2 4 2 7.5t3 7.5q4 18 18 47.5t57 72.5l56 -2v164h198v-12l97 -96v-64q0 -8 -1.5 -16t-1.5 -17l13 -18l55 -51q37 -39 51.5 -66.5t20.5 -48.5q4 -16 8 -22l-2 -875l2 -133q-2 -90 -18.5 -125t-59.5 -35l-61 -4h-9q-2 -37 -2 -84v-80h-186l-96 97h-12 v108l-66 66q-31 10 -43 47t-14 114l-2 136q0 49 -1 104t-1 113.5t-1.5 115t-1.5 105.5q-2 100 -3 219t-1 219zM37 1155l8 -872h2v-136q4 -82 17.5 -113.5t48.5 -31.5l59 -2l-2 -168h158q0 37 1 82t3 84l20 -2v4h62q35 0 48 31.5t15 113.5l-2 134h2v870q-4 8 -8 20.5 t-10 28.5t-18.5 35.5t-34.5 42.5h-76q0 66 1 101.5t1 64.5h-158v-164l-68 2q-45 -45 -53 -77t-16 -48zM195 1124h122v-815l2 -155h-2v-2l-112 2v155z" />
<glyph unicode="&#xd9;" horiz-adv-x="675" d="M14 1667l29 29h190l33 -43l68 -66l215 -268h-230l-96 96h-8q-2 2 -4 5t-4 5q-25 35 -51 68q-29 35 -67 81t-75 93zM41 1665q57 -72 102 -127t82 -102h193l-193 239h-174zM82 147l2 996v157h203v-12l78 -78q0 41 1 59.5t3 30.5h194v-12l96 -96v-188l-2 -828l2 -133 q-2 -90 -18 -125t-59 -35l-301 2q-33 0 -54 21l-82 80q-29 10 -45 48t-18 113zM102 147q4 -82 22.5 -113.5t53.5 -31.5l301 -2q35 0 48.5 31.5t15.5 113.5l-2 134h2v827v174h-154q-2 -12 -3 -29.5t-2 -58.5t-1 -112.5v-193.5v-300t2 -432h-2l4 -2h-123q2 233 2 417.5v322.5 v234.5v153.5h-162q0 -43 -1 -74.5t1 -60.5v4z" />
<glyph unicode="&#xda;" horiz-adv-x="610" d="M16 147q4 -76 19.5 -113.5t44.5 -47.5l82 -80q20 -20 53 -21l301 -2q43 0 59.5 35t18.5 125l-2 133l2 828v188l-96 96v12h-195q-2 -12 -3 -30.5t-1 -59.5l-78 78v12h-203v-157zM37 147l2 1002v-4q-2 29 -1 60.5t1 74.5h162v-153.5v-234.5v-322.5t-2 -417.5h123l-5 2h2 q-2 254 -2 432v300v193.5t1 112.5t3.5 58.5t2.5 29.5h153v-174v-827h-2l2 -134q-2 -82 -15 -113.5t-48 -31.5l-301 2q-35 0 -53.5 32t-22.5 113zM113 1415l147 281h197l26 -27q-2 -2 -2 -3t-2 -3l99 -96q-31 -59 -57.5 -111.5t-49.5 -93.5q-4 -8 -11 -22.5t-11 -20.5h-224 l-96 96h-16zM145 1436h193q25 47 54.5 102t66.5 127l-10 10h-177z" />
<glyph unicode="&#xdb;" horiz-adv-x="665" d="M16 1559q14 10 41 34v2l2 -2q27 23 60 49.5t57 45.5q10 8 20.5 16t20.5 16q18 16 41 35t43 35l252 -201v-8l96 -96v-182l-246 155l-241 -158h100v-12l78 -78q0 41 1 59.5t3 30.5h195v-12l96 -96v-188l-2 -828l2 -133q-2 -90 -18.5 -125t-59.5 -35l-301 2q-33 0 -53 21 l-82 80q-29 10 -45.5 48t-18.5 113l2 996v157h103l-99 97l-10 -6l2 145l2 4l-18 19h-23zM72 1575l6 6v-10l-2 -8l2 -4v-3l-2 -20l-2 -106l227 149l231 -147v149l-231 184q-76 -61 -132 -106t-97 -80v-4zM78 147q4 -82 22.5 -113.5t53.5 -31.5l301 -2q35 0 48 31.5t15 113.5 l-2 134h2v827v174h-153q0 -12 -2.5 -29.5t-3.5 -58.5t-1 -112.5v-193.5v-300t2 -432h-2l4 -2h-122q2 233 2 417.5v322.5v234.5v153.5h-162q0 -43 -1 -74.5t1 -60.5v4z" />
<glyph unicode="&#xdc;" horiz-adv-x="610" d="M16 147l2 996v157h203v-12l78 -78q0 41 1 59.5t3 30.5h195v-12l96 -96v-188l-2 -828l2 -133q-2 -90 -18.5 -125t-59.5 -35l-301 2q-33 0 -53 21l-82 80q-29 10 -44.5 48t-19.5 113zM25 1616h204v-12l58 -62v74h205v-12l96 -97v-82q0 -20 -1 -47.5t-1 -50.5l-189 -2 l-71 72q-2 -16 -2 -35v-35l-189 -2l-96 96h-12zM37 147q4 -82 22.5 -113.5t53.5 -31.5l301 -2q35 0 48 31.5t15 113.5l-2 134h2v827v174h-153q0 -12 -2.5 -29.5t-3.5 -58.5t-1 -112.5v-193.5v-300t2 -432h-2l5 -2h-123q2 233 2 417.5v322.5v234.5v153.5h-162q0 -43 -1 -74.5 t1 -60.5v4zM45 1595l2 -153l160 2q0 43 1 80t1 71h-164zM307 1595l2 -153l160 2q0 43 1 80t1 71h-164z" />
<glyph unicode="&#xdd;" horiz-adv-x="634" d="M16 1300h199v-12l86 -86v98h199v-12l96 -96l14 -1139q6 -66 -13 -110.5t-67 -63.5l-221 4q-14 0 -47 10.5t-67 45.5l-66 63q-31 16 -61.5 54t-42.5 106l198 180v-18l88 -88q-2 39 -2 75.5v75.5q-2 16 -2 34.5v39.5q-47 -20 -91 -36.5t-85 -33.5l-98 96q-4 -2 -5 -2t-5 -2 zM37 1280l6 -764l285 115l6 -477h-129l-2 143l-156 -143q10 -49 32.5 -79t47.5 -47.5t47.5 -22.5t32.5 -5l215 -4q88 35 72 158l-15 1126h-157l6 -483l-131 -54l-2 537h-158zM98 1415l148 281h196l27 -27q-2 -2 -2 -3t-2 -3l98 -96q-31 -59 -57.5 -111.5t-48.5 -93.5 q-4 -8 -11.5 -22.5t-11.5 -20.5h-223l-96 96h-17zM131 1436h193q25 47 54.5 102t65.5 127l-10 10h-176z" />
<glyph unicode="&#xde;" horiz-adv-x="616" d="M16 1305h199v-13l96 -96v-147q8 0 15.5 1t15.5 1q100 -12 135 -78l68 -68l-2 2l8 -6q23 -23 34 -56.5t17 -84.5v-209q-4 -70 -13 -121t-52 -92q-4 -2 -14.5 -7t-8.5 -3q-14 -4 -34.5 -12.5t-43.5 -12.5q-8 -6 -23.5 -10t-33.5 -10q-23 -8 -40 -14.5t-22 -2.5l2 -383h-190 l-96 97h-13zM37 1284l4 -1284h162l-2 371q0 2 18.5 9t41 15t43 14.5t24.5 10.5q37 8 61.5 17t34.5 14q41 41 49 89t12 113v207q-10 86 -39.5 124t-105.5 46l-145 -2v98v70v49.5v38.5h-158zM199 874h131v-266l-127 -43z" />
<glyph unicode="&#xdf;" horiz-adv-x="616" d="M16 -20v1320l322 3q53 -6 86 -24.5t51 -55.5l66 -68l-2 2l8 -6q39 -39 51 -139l-2 -209q-2 -33 -2 -59.5t-4 -50t-12.5 -44t-26.5 -39.5l12 -12q10 -10 18.5 -26.5t16.5 -32.5v-426q2 -18 2 -40v-38q0 -49 -5 -80t-18.5 -46t-34 -20.5t-50.5 -5.5h-93l-84 84v-84h-190 l-96 97h-13zM37 0h162v-2v264.5t-1 183t-1 125v89t-1 74.5t-1 85h2l-2 307h131l-2 -266l-43 -14l26 -184q4 0 12 4q4 2 7 2l-2 -514h-35q4 -25 7 -62t13 -92h80q33 0 52.5 7t29.5 29.5t11 64.5t-1 114v424q-14 29 -26.5 46t-36.5 17q43 41 50 89.5t11 113.5l2 207 q-10 86 -40.5 124t-104.5 46l-299 -2v-1280zM203 819h6v2z" />
<glyph unicode="&#xe0;" horiz-adv-x="626" d="M16 1667l29 29h191l32 -43l68 -66l215 -268h-229l-97 96h-8q-2 2 -4 5t-4 5q-25 35 -51 68q-29 35 -67 81t-75 93zM27 1057q-2 61 14 121.5t63 113.5l299 2q43 -31 64 -69l65 -64q37 -35 50.5 -85t23.5 -115l4 -1078h-186l-96 97h-6v-97h-185l-96 97h-12zM43 1665 q57 -72 102 -127t82 -102h193l-193 239h-174zM47 1057l2 -1057h156l-2 573l133 52v-625h158l-5 1061q-10 74 -26.5 127t-67.5 86l-282 -2q-39 -47 -53.5 -101.5t-12.5 -113.5zM203 1116h131l-2 -328l-127 -49z" />
<glyph unicode="&#xe1;" horiz-adv-x="618" d="M18 1057l2 -1077h13l96 -97l184 -2v99h6l97 -97h186l-4 1078q-10 66 -23.5 115.5t-50.5 84.5l-8 6h2l-59 58q-20 39 -64 69l-299 -2q-47 -53 -63.5 -113.5t-14.5 -121.5zM39 1057q-2 59 12.5 113.5t52.5 101.5l283 2q51 -33 67.5 -86t26.5 -127l4 -1061h-157v625 l-133 -52l2 -575l-156 2zM86 1415l147 281h197l27 -27q-2 -2 -2 -3t-2 -3l98 -96q-31 -59 -57.5 -111.5t-49.5 -93.5q-4 -8 -11 -22.5t-11 -20.5h-223l-97 96h-16zM119 1436h192q25 47 54.5 102t66.5 127l-10 10h-176zM195 1116l2 -377l127 49l2 328h-131z" />
<glyph unicode="&#xe2;" horiz-adv-x="665" d="M16 1559q14 10 41 34q29 23 62 49.5t57 45.5q10 8 20.5 16t20.5 16q18 16 41 35t43 35l252 -201v-8l96 -96v-182l-246 155l-241 -158l-99 97l-10 -6l2 145v4l-16 19h-23zM45 1057q-2 61 14.5 121.5t63.5 113.5l299 2q43 -31 63 -69l66 -64q37 -35 50 -85t24 -115l4 -1078 h-187l-96 97h-6v-97h-184l-97 97h-12zM66 1057l2 -1057h155l-2 573l133 52v-625h158l-4 1061q-10 74 -26.5 127t-67.5 86l-283 -2q-39 -47 -53.5 -101.5t-11.5 -113.5zM72 1575l6 6v-10l-2 -8l2 -4v-3l-2 -20l-2 -106l227 149l231 -147v149l-231 184q-76 -61 -132 -106 t-97 -80v-4zM221 1116h131l-2 -328l-127 -49z" />
<glyph unicode="&#xe3;" horiz-adv-x="636" d="M18 1057l2 -1077h13l96 -97l184 -2v99h6l97 -97h186l-4 1078q-10 66 -23.5 115.5t-50.5 84.5l-8 6h2l-59 58q-20 39 -64 69l-299 -2q-47 -53 -63.5 -113.5t-14.5 -121.5zM31 1468l2 146q2 47 10 76.5t53 38.5l264 -3l-2 -12l15 -12l4 27h104q8 0 10.5 -2.5t16.5 -14.5 q2 0 2 -2q0 -4 2 -4q2 -4 8 -10v-4l74 -74q0 -2 2 -3t4 -5l4 -2q2 -2 3 -6.5t5 -8.5l4 -2l-4 -43v-151q6 -25 -23.5 -48.5t-80.5 -19.5h-209l-29 27l-6 -31h-45q-41 2 -65 27l-78 75q-29 12 -45 41zM39 1057q-2 59 12.5 113.5t52.5 101.5l283 2q51 -33 67.5 -86t26.5 -127 l4 -1061h-157v625l-133 -52l2 -575l-156 2zM51 1477q18 -33 66 -35h33l20 96h-20v76h88l-25 -168h193q43 -4 69.5 13.5t20.5 35.5v156l4 37q-8 10 -11.5 14t-5.5 6t-6 1t-14 -1h-68l-14 -94h27v-76h-91l21 168l-240 2q-31 -4 -37 -28.5t-8 -65.5zM195 1116l2 -377l127 49 l2 328h-131z" />
<glyph unicode="&#xe4;" horiz-adv-x="618" d="M18 1057q-2 61 14.5 121.5t63.5 113.5l299 2q43 -31 64 -69l59 -58h-2l8 -6q37 -35 50.5 -85t23.5 -115l4 -1078h-186l-97 97h-6v-97h-184l-96 97h-13zM33 1616h205v-12l57 -62v74h205v-12l96 -97v-82q0 -20 -1 -47.5t-1 -50.5l-188 -2l-72 72q-2 -16 -2 -35v-35l-189 -2 l-96 96h-12zM39 1057l2 -1057h156l-2 573l133 52v-625h157l-4 1061q-10 74 -26.5 127t-67.5 86l-283 -2q-39 -47 -53 -101.5t-12 -113.5zM53 1595l2 -153l160 2q0 43 1 80t1 71h-164zM195 1116h131l-2 -328l-127 -49zM315 1595l2 -153l160 2q0 43 1 80t1 71h-164z" />
<glyph unicode="&#xe5;" horiz-adv-x="620" d="M16 1245v25l2 227l5 8v13q2 27 11 60.5t52 49.5h324q37 0 56 -14.5t30 -36.5l79 -80l-6 4q4 -4 6 -4q20 -20 23.5 -50t1.5 -54q-2 -66 -5 -139.5t-5 -137.5q-2 -10 -4 -21.5t-6 -21.5q10 -45 20 -112l4 -1078h-186l-96 97h-7v-99l-184 2l-96 97h-12l-3 1077 q-2 33 0.5 58.5t10.5 53.5q-6 12 -9.5 33t-5.5 43zM36 1270q1 -4 1 -8v16q-2 -4 -1 -8zM37 1255q2 -25 4 -47t14 -32q-18 -55 -14 -119l2 -1057l156 -2l-2 575l133 52v-625h157l-4 1061q-4 35 -9 63.5t-13 53.5q6 8 8 18t4 25l10 274v35.5t-6 37t-21.5 29t-45.5 11.5h-318 q-23 -8 -32 -25.5t-13 -36t-4 -34t-4 -17.5zM197 1116h131l-2 -328l-127 -49zM205 1278l4 217h110l-10 -217h-104z" />
<glyph unicode="&#xe6;" horiz-adv-x="915" d="M18 1057q-2 61 14.5 121.5t63.5 113.5l301 -2q4 -4 6 -4t4.5 -2t4.5 -2q18 6 37.5 10t48.5 8l299 5v-13l96 -96l2 -182h-287v-197q10 4 17.5 6t17.5 6q23 10 49.5 18.5t46.5 16.5l6 -20l93 -90l61 -174l-293 -107v-150.5t2 -146.5h191v-12l96 -96v-181l-479 -4l-97 97h-6 v-99l-184 2l-96 97h-13zM39 1057l2 -1057l156 -2l-2 575l133 52v-625l450 4v152h-286l-3 430l289 104l-53 148l-233 -84v376h286l-2 154l-276 -4q-29 -4 -51.5 -9t-40.5 -14q-4 4 -9.5 8.5t-11.5 8.5l-283 -2q-39 -47 -53 -101.5t-12 -113.5zM195 1116h131l-2 -328l-127 -49 z" />
<glyph unicode="&#xe7;" d="M16 -23v1323l402 -4q14 -16 24.5 -28.5t18.5 -22.5l57 -57q37 -39 51.5 -66.5t20.5 -48.5q4 -16 8 -22v-207h-186l-97 96h-4v-600h191v-12l96 -97v-188q-2 -90 -18.5 -125t-59.5 -35h-55q0 -43 1 -88t1 -88q-4 -53 -14.5 -88t-28.5 -54.5t-48 -26.5t-75 -7h-162l-96 96 h-12v205h145v49h-51l-96 96h-13zM37 -2l158 2l2 -188h-146v-164h148q41 0 68.5 7t45 25.5t25.5 50t12 81.5l-2 188h70q35 0 48 31.5t15 113.5v174h-157v-165h-129v970h127l2 -163h157v188q-4 8 -8 20.5t-10 28.5t-18.5 35.5t-34.5 42.5l-373 4v-1282z" />
<glyph unicode="&#xe8;" horiz-adv-x="618" d="M16 1083q2 45 7.5 82t25 64.5t55 44t99.5 22.5l301 4v-12l96 -96v-182h-287v-197q10 4 17.5 6t17.5 6q23 10 49.5 18.5t46.5 16.5l7 -20l92 -90l61 -175l-291 -106v-297h191v-12l96 -97l2 -180h-473l-96 97h-13zM33 1667l28 29h193l33 -43l67 -66l215 -268h-227l-96 96 h-8q-10 14 -23.5 29.5t-26.5 32.5q-10 14 -22 28.5t-23 28.5q-8 10 -16 20.5t-16 20.5q-16 23 -39 46.5t-39 45.5zM37 1083l4 -1083h444l-2 152h-286v430l286 104l-53 148l-233 -84v376h286v154l-278 -4q-55 -6 -88 -21.5t-50.5 -40t-22.5 -57.5t-7 -74zM59 1665 q59 -72 104.5 -127t82.5 -102h192l-192 239h-176z" />
<glyph unicode="&#xe9;" horiz-adv-x="620" d="M16 1083l4 -1103h13l96 -97h473l-2 180l-96 97v12h-191v297l291 106l-61 175l-92 90l-7 20q-20 -8 -46.5 -16t-49.5 -19q-10 -4 -17 -6t-18 -6v197h287v182l-96 96v12l-301 -4q-63 -6 -99 -22.5t-55.5 -44t-25 -64.5t-7.5 -82zM37 1083q2 41 7 74t22.5 57.5t50.5 40 t88 21.5l278 4v-154h-286v-376l233 84l53 -148l-286 -104v-430h286l2 -152h-444zM131 1415l148 281h196l27 -27q-2 -2 -2 -3t-2 -3l98 -96q-31 -59 -57.5 -111.5t-49.5 -93.5q-4 -8 -11 -22.5t-11 -20.5h-223l-97 96h-16zM164 1436h192q25 47 54.5 102t66.5 127l-10 10h-176 z" />
<glyph unicode="&#xea;" horiz-adv-x="665" d="M16 1546q14 10 41 35v2l2 -2q27 23 60 49.5t57 44.5q10 8 20.5 16.5t20.5 16.5q18 16 41 34.5t43 35.5l252 -201v-8l96 -96v-183l-246 156l-241 -158l-99 96l-10 -6l2 146l2 4l-18 18h-23zM57 1083q2 45 7.5 82t25 64.5t55 44t99.5 22.5l301 4v-12l96 -96v-182h-287v-197 q10 4 17.5 6t17.5 6q23 10 49.5 18.5t46.5 16.5l7 -20l92 -90l61 -175l-291 -106v-297h191v-12l96 -97l2 -180h-473l-96 97h-13zM72 1563l6 6v-10l-2 -9v-4l2 -2l-2 -20l-2 -107l227 150l231 -148v150l-231 184q-76 -61 -132 -106t-97 -80v-4zM78 1083l4 -1083h444l-2 152 h-286v430l286 104l-53 148l-233 -84v376h286v154l-278 -4q-55 -6 -88 -21.5t-50.5 -40t-22.5 -57.5t-7 -74z" />
<glyph unicode="&#xeb;" horiz-adv-x="620" d="M16 1083q2 45 7.5 82t25 64.5t55 44t99.5 22.5l301 4v-12l96 -96v-182h-287v-197q10 4 17.5 6t17.5 6q23 10 49.5 18.5t46.5 16.5l7 -20l92 -90l61 -175l-291 -106v-297h191v-12l96 -97l2 -180h-473l-96 97h-13zM29 1616h204v-12l58 -62v74h205v-12l96 -97v-82 q0 -20 -1 -47.5t-1 -50.5l-189 -2l-71 72q-2 -16 -2 -35v-35l-189 -2l-96 96h-12zM37 1083l4 -1083h444l-2 152h-286v430l286 104l-53 148l-233 -84v376h286v154l-278 -4q-55 -6 -88 -21.5t-50.5 -40t-22.5 -57.5t-7 -74zM49 1595l2 -153l160 2q0 43 1 80t1 71h-164z M311 1595l2 -153l160 2q0 43 1 80t1 71h-164z" />
<glyph unicode="&#xec;" horiz-adv-x="567" d="M14 1665l31 31h191l32 -43l68 -66l215 -268h-229l-97 96h-8q-6 8 -13 17.5t-16 19.5q-23 29 -46 59.5t-52 65.5q-6 12 -18.5 23.5t-24.5 25.5q-8 10 -17.5 20.5t-15.5 18.5zM43 1665q59 -72 104.5 -127t79.5 -102h193l-193 239h-174zM229 -20v1320h199v-12l96 -96v-64 q-2 -23 -2 -55.5v-79.5v-115.5t4 -162.5q0 -129 1 -214t1 -167t-1 -187.5t-1 -261.5l-188 -2l-96 97h-13zM250 0l160 2q0 104 1 181t1 139.5v114.5v108.5t-1 121t-1 150.5q-4 123 -4 202v129t1 78.5t1 53.5h-158v-1280z" />
<glyph unicode="&#xed;" horiz-adv-x="495" d="M16 1415l148 281h196l27 -27q-2 -2 -2 -3t-2 -3l98 -96q-31 -59 -57.5 -111.5t-48.5 -93.5q-4 -8 -11.5 -22.5t-11.5 -20.5h-223l-96 96h-17zM33 -20h12l96 -97l189 2q0 156 1 261.5t1 187.5t-1 167t-1 214q-4 94 -4 162.5v115.5v80t2 55v64l-97 96v12h-198v-1320z M49 1436h193q25 47 54.5 102t65.5 127l-10 10h-176zM53 0v1280h158q0 -25 -1 -53.5t-1 -78.5v-129t4 -202q0 -86 1 -150.5t1 -121v-108.5v-114.5t-1 -139.5t-1 -181z" />
<glyph unicode="&#xee;" horiz-adv-x="659" d="M14 1559q14 10 41 34v2l2 -2q33 29 75 63t77 62q16 14 41.5 36t44.5 38l254 -203v-8l96 -96v-182l-246 155l-239 -158l-99 97l-10 -6l2 145l2 4l-18 19h-23zM70 1575l6 6v-10l-2 -8l2 -4v-3l-2 -20l-2 -106l225 149l231 -147v149l-231 184q-76 -61 -131 -106t-96 -80v-4z M193 -20v1320h198v-12l96 -96v-64q-2 -23 -2 -55.5v-79.5v-115.5t4 -162.5q0 -129 1.5 -214t1.5 -167t-1.5 -187.5t-1.5 -261.5l-188 -2l-96 97h-12zM213 0l160 2q0 104 1 181t1 139.5v114.5v108.5t-1 121t-1 150.5q-4 123 -4 202v129t1 78.5t1 53.5h-158v-1280z" />
<glyph unicode="&#xef;" horiz-adv-x="589" d="M14 1610h201v-15l59 -61v76h203v-15l96 -94q2 -23 2 -52.5v-55.5v-72l-190 -2l-72 72v-70l-188 -2l-96 96h-13zM35 1589l2 -153l160 2q0 43 1 79.5t-1 71.5h-162zM150 -20v1320h198v-12l96 -96v-64q-2 -23 -2 -55.5v-79.5v-115.5t4 -162.5q0 -129 1.5 -214t1.5 -167 t-1.5 -187.5t-1.5 -261.5l-188 -2l-96 97h-12zM170 0l160 2q0 104 1 181t1 139.5v114.5v108.5t-1 121t-1 150.5q-4 123 -4 202v129t1 78.5t1 53.5h-158v-1280zM295 1589l2 -153l162 2q0 43 1 79.5t-1 71.5h-164z" />
<glyph unicode="&#xf0;" horiz-adv-x="729" d="M16 899l168 -78l-2 168h-57l-96 96h-13q2 61 17.5 114.5t56.5 94.5l332 2q39 -27 67 -75l46 -47h2l4 -5l-4 5q10 4 17 9t17 9t23.5 10t23.5 10v-16l97 -96v-211l-105 -47l-6 -510v-254q2 -39 -7 -75t-24.5 -63.5t-36 -43t-40.5 -15.5h-211q-55 6 -99 45l-73 74 q-41 23 -65.5 66t-29.5 110zM37 866l2 -688q14 -164 145 -180h209q20 -2 39 12.5t32 39t20.5 58t2.5 70.5v256l2 2l5 516l104 47v183q-29 -12 -53.5 -23.5t-50.5 -21.5q-4 49 -28 83.5t-52 55.5l-316 -2q-35 -35 -47 -77t-14 -91h178v-2h113l-2 -39q-29 -14 -59.5 -26.5 t-65.5 -28.5v-4h2v-11l2 -161l123 47v-150zM207 180v373l119 -47l4 -328zM532 1180l5 -6q-4 4 -5 6z" />
<glyph unicode="&#xf1;" horiz-adv-x="622" d="M16 1468l2 146q2 47 10.5 76.5t53.5 38.5l264 -3l-2 -12l14 -12l4 27h105q8 0 10 -2.5t17 -14.5q2 0 2 -2q0 -4 2 -4q2 -4 8 -10v-4l74 -74q0 -2 2 -3t4 -5l4 -2q2 -2 3 -6.5t5 -8.5l4 -2l-4 -43v-151q6 -25 -23.5 -48.5t-80.5 -19.5h-209l-29 27l-6 -31h-45 q-41 2 -66 27l-78 75q-29 12 -45 41zM18 42.5q0 -34.5 2 -62.5h13l96 -97h182v23q0 10 1 25.5t1 43.5l93 -92h190v80t-2 70l2 997q-2 55 -11.5 89t-25.5 50l-80 78q-20 51 -76 51l-299 2q-47 0 -65.5 -36.5t-18.5 -128.5v-959q-2 -14 -2 -36.5v-39.5v-57.5zM37 1477 q18 -33 65 -35h33l21 96h-21v76h88l-24 -168h192q43 -4 69.5 13.5t20.5 35.5v156l4 37q-8 10 -11 14t-5 6t-6 1t-14 -1h-68l-14 -94h26v-76h-90l21 168l-240 2q-31 -4 -37 -28.5t-8 -65.5zM39 1001h2v134q0 82 14.5 113.5t48.5 31.5l299 -2q35 0 53.5 -32t22.5 -113v-1002 l-2 4q2 -29 2 -60.5v-74.5h-162q0 57 -1 153.5t-1 234.5v322.5t2 417.5h-122l4 -2h-2q2 -254 2 -432v-300v-193.5t-1 -112.5t-2 -58.5t-1 -29.5h-154q-2 115 0 174z" />
<glyph unicode="&#xf2;" horiz-adv-x="632" d="M16 1667l29 29h193l32 -43l68 -66l215 -268h-227l-97 96h-8q-10 14 -23.5 29.5t-25.5 32.5q-10 14 -22.5 28.5t-22.5 28.5q-8 10 -16.5 20.5t-16.5 20.5q-16 23 -38.5 46.5t-39.5 45.5zM37 1159q4 4 8 25q6 20 20.5 48t55.5 68l166 -2v-2h149q14 -16 24.5 -28.5 t18.5 -22.5l58 -57q37 -39 51 -66.5t20 -48.5q4 -16 8 -22l-2 -875l2 -133q-2 -90 -18 -125t-59 -35l-301 2q-31 0 -48 17l-84 84q-31 10 -43 47t-14 114l-2 136q-2 100 -3 217.5t-3 220.5q-2 100 -3 219t-1 219zM43 1665q59 -72 104.5 -127t81.5 -102h193l-193 239h-176z M57 1155l11 -872h2v-136q4 -82 17 -113.5t48 -31.5l301 -2q35 0 48.5 31.5t15.5 113.5l-2 134h2v870q-4 8 -8.5 20.5t-10.5 28.5t-18 35.5t-35 42.5h-156v2l-143 2q-23 -23 -35 -42t-18 -34.5t-10.5 -28t-8.5 -20.5zM217 1124h123v-815l2 -155h-2v-2l-113 2v155z" />
<glyph unicode="&#xf3;" d="M16 1159q0 -100 1 -219t3 -219q2 -102 3.5 -220t3.5 -218l2 -136q2 -78 14 -114.5t43 -46.5l84 -84q16 -16 47 -17l240 -6l61 4q43 0 59.5 35t18.5 125l-2 133l2 875q-4 6 -8 22q-6 20 -20.5 48t-51.5 67l-57 57q-8 10 -18.5 22.5t-24.5 28.5h-150v2l-166 2 q-41 -41 -55 -68.5t-20 -47.5q-4 -20 -9 -25zM37 1155q4 8 8 20.5t10 28t18.5 34.5t35.5 42l143 -2v-2h156q23 -23 35 -42.5t18 -35.5t10 -28.5t8 -20.5v-870h-2l2 -134q-2 -82 -15 -113.5t-48 -31.5h-62v-4l-239 6q-35 0 -48.5 32t-17.5 113v136h-2zM131 1415l148 281h196 l27 -27q-2 -2 -2 -3t-2 -3l98 -96q-31 -59 -57.5 -111.5t-49.5 -93.5q-4 -8 -11 -22.5t-11 -20.5h-223l-97 96h-16zM164 1436h192q25 47 54.5 102t66.5 127l-10 10h-176zM197 1124l10 -815v-155l112 -2v2h3l-3 155v815h-122z" />
<glyph unicode="&#xf4;" horiz-adv-x="663" d="M14 1559q14 10 41 34v2l2 -2q27 23 60 49.5t57 45.5q10 8 20.5 16t20.5 16q18 16 41 35t43 35l252 -201v-8l96 -96v-182l-246 155l-241 -158l151 -2v-2h150q14 -16 24.5 -28.5t18.5 -22.5l57 -57q37 -39 51.5 -66.5t20.5 -48.5q4 -16 8 -22l-2 -875l2 -133 q-2 -90 -18.5 -125t-59.5 -35l-301 2q-31 0 -47 17l-84 84q-31 10 -43 47t-14 114l-2 136q-2 100 -3 217.5t-3 220.5q-2 100 -3.5 219t-1.5 219q4 4 9 25q6 20 20 48t55 68h15l-99 97l-10 -6l2 145l2 4l-18 19h-23zM70 1575l6 6v-10l-2 -8l2 -4v-3l-2 -20l-2 -106l227 149 l231 -147v149l-231 184q-76 -61 -132 -106t-97 -80v-4zM82 1155l10 -872h2v-136q4 -82 17.5 -113.5t48.5 -31.5l301 -2q35 0 48 31.5t15 113.5l-2 134h2v870q-4 8 -8 20.5t-10 28.5t-18.5 35.5t-34.5 42.5h-156v2l-143 2q-23 -23 -35.5 -42t-18.5 -34.5t-10 -28t-8 -20.5z M242 1124h123v-815l2 -155h-2v-2l-113 2v155z" />
<glyph unicode="&#xf5;" horiz-adv-x="622" d="M16 1468l2 146q2 47 10.5 76.5t53.5 38.5l264 -3l-2 -12l14 -12l4 27h105q8 0 10 -2.5t17 -14.5q2 0 2 -2q0 -4 2 -4q2 -4 8 -10v-4l74 -74q0 -2 2 -3t4 -5l4 -2q2 -2 5 -7.5t7 -9.5l-4 -43v-151q6 -25 -23.5 -48.5t-80.5 -19.5h-209l-29 27l-6 -31h-45q-41 2 -66 27 l-78 75q-29 12 -45 41zM20 1159q0 -100 1.5 -219t3.5 -219q2 -102 3 -220t3 -218l2 -136q2 -78 14 -114.5t43 -46.5l84 -84q16 -16 47 -17l240 -6l61 4q43 0 59.5 35t18.5 125l-2 133l2 875q-4 6 -8 22q-6 20 -20.5 48t-51.5 67l-57 57q-8 10 -18.5 22.5t-24.5 28.5h-150v2 l-166 2q-41 -41 -55 -68.5t-20 -47.5q-4 -20 -9 -25zM37 1477q18 -33 65 -35h33l21 96h-21v76h88l-24 -168h192q43 -4 69.5 13.5t20.5 35.5v156l4 37q-8 10 -11 14t-5 6t-6 1t-14 -1h-68l-14 -94h26v-76h-90l21 168l-240 2q-31 -4 -37 -28.5t-8 -65.5zM41 1155q4 8 8 20.5 t10.5 28t18.5 34.5t35 42l143 -2v-2h156q23 -23 35 -42.5t18 -35.5t10 -28.5t8 -20.5v-870h-2l2 -134q-2 -82 -15 -113.5t-48 -31.5h-62v-4l-239 6q-35 0 -48.5 32t-17.5 113v136h-2zM201 1124l10 -815v-155l113 -2v2h2l-2 155v815h-123z" />
<glyph unicode="&#xf6;" d="M16 1159q4 4 9 25q6 20 20 48t55 68l166 -2v-2h150q14 -16 24.5 -28.5t18.5 -22.5l57 -57q37 -39 51.5 -66.5t20.5 -48.5q4 -16 8 -22l-2 -875l2 -133q-2 -90 -18.5 -125t-59.5 -35l-301 2q-31 0 -47 17l-84 84q-31 10 -43 47t-14 114l-2 136q-2 100 -3 217.5t-4 220.5 q-2 100 -3 219t-1 219zM23 1616h204v-12l58 -62v74h204v-12l97 -97v-82q0 -20 -1 -47.5t-1 -50.5l-189 -2l-71 72q-2 -16 -2 -35v-35l-189 -2l-96 96h-12zM37 1155l10 -872h2v-136q4 -82 17.5 -113.5t48.5 -31.5l301 -2q35 0 48 31.5t15 113.5l-2 134h2v870q-4 8 -8 20.5 t-10 28.5t-18.5 35.5t-34.5 42.5h-156v2l-143 2q-23 -23 -35.5 -42t-18.5 -34.5t-10 -28t-8 -20.5zM43 1595l2 -153l160 2q0 43 1 80t1 71h-164zM197 1124h122v-815l3 -155h-3v-2l-112 2v155zM305 1595l2 -153l160 2q0 43 1 80t1 71h-164z" />
<glyph unicode="&#xf7;" horiz-adv-x="1017" d="M14 510v199h224q55 0 110 1t109 1h10l-90 90h-12v194h204v-12l97 -96v-82q0 -20 -1 -47t-1 -49q61 0 121.5 -1t119.5 -1v-13l96 -96l3 -184h-431l93 -92v-181l-191 -2l-96 97h-12l-2 178h-242l-96 96h-13zM35 530h852l-2 156q-217 4 -428 4t-422 -2v-158zM385 410l2 -154 l162 2v152h-164zM385 821l162 2q0 43 1 80t1 72h-164v-154z" />
<glyph unicode="&#xf8;" horiz-adv-x="610" d="M16 1159q0 2 1 3t1 3q2 4 2 7.5t3 7.5q4 18 18 47.5t57 72.5l56 -2v164h198v-12l97 -96v-64q0 -8 -1.5 -16t-1.5 -17l13 -18l55 -51q37 -39 51.5 -66.5t20.5 -48.5q4 -16 8 -22l-2 -875l2 -133q-2 -90 -18.5 -125t-59.5 -35l-61 -4h-9q-2 -37 -2 -84v-80h-186l-96 97h-12 v108l-66 66q-31 10 -43 47t-14 114l-2 136q0 49 -1 104t-1 113.5t-1.5 115t-1.5 105.5q-2 100 -3 219t-1 219zM37 1155l8 -872h2v-136q4 -82 17.5 -113.5t48.5 -31.5l59 -2l-2 -168h158q0 37 1 82t3 84l20 -2v4h62q35 0 48 31.5t15 113.5l-2 134h2v870q-4 8 -8 20.5 t-10 28.5t-18.5 35.5t-34.5 42.5h-76q0 66 1 101.5t1 64.5h-158v-164l-68 2q-45 -45 -53 -77t-16 -48zM195 1124h122v-815l2 -155h-2v-2l-112 2v155z" />
<glyph unicode="&#xf9;" horiz-adv-x="675" d="M14 1667l29 29h190l33 -43l68 -66l215 -268h-230l-96 96h-8q-2 2 -4 5t-4 5q-25 35 -51 68q-29 35 -67 81t-75 93zM41 1665q57 -72 102 -127t82 -102h193l-193 239h-174zM82 147l2 996v157h203v-12l78 -78q0 41 1 59.5t3 30.5h194v-12l96 -96v-188l-2 -828l2 -133 q-2 -90 -18 -125t-59 -35l-301 2q-33 0 -54 21l-82 80q-29 10 -45 48t-18 113zM102 147q4 -82 22.5 -113.5t53.5 -31.5l301 -2q35 0 48.5 31.5t15.5 113.5l-2 134h2v827v174h-154q-2 -12 -3 -29.5t-2 -58.5t-1 -112.5v-193.5v-300t2 -432h-2l4 -2h-123q2 233 2 417.5v322.5 v234.5v153.5h-162q0 -43 -1 -74.5t1 -60.5v4z" />
<glyph unicode="&#xfa;" horiz-adv-x="610" d="M16 147q4 -76 19.5 -113.5t44.5 -47.5l82 -80q20 -20 53 -21l301 -2q43 0 59.5 35t18.5 125l-2 133l2 828v188l-96 96v12h-195q-2 -12 -3 -30.5t-1 -59.5l-78 78v12h-203v-157zM37 147l2 1002v-4q-2 29 -1 60.5t1 74.5h162v-153.5v-234.5v-322.5t-2 -417.5h123l-5 2h2 q-2 254 -2 432v300v193.5t1 112.5t3.5 58.5t2.5 29.5h153v-174v-827h-2l2 -134q-2 -82 -15 -113.5t-48 -31.5l-301 2q-35 0 -53.5 32t-22.5 113zM113 1415l147 281h197l26 -27q-2 -2 -2 -3t-2 -3l99 -96q-31 -59 -57.5 -111.5t-49.5 -93.5q-4 -8 -11 -22.5t-11 -20.5h-224 l-96 96h-16zM145 1436h193q25 47 54.5 102t66.5 127l-10 10h-177z" />
<glyph unicode="&#xfb;" horiz-adv-x="665" d="M16 1559q14 10 41 34v2l2 -2q27 23 60 49.5t57 45.5q10 8 20.5 16t20.5 16q18 16 41 35t43 35l252 -201v-8l96 -96v-182l-246 155l-241 -158h100v-12l78 -78q0 41 1 59.5t3 30.5h195v-12l96 -96v-188l-2 -828l2 -133q-2 -90 -18.5 -125t-59.5 -35l-301 2q-33 0 -53 21 l-82 80q-29 10 -45.5 48t-18.5 113l2 996v157h103l-99 97l-10 -6l2 145l2 4l-18 19h-23zM72 1575l6 6v-10l-2 -8l2 -4v-3l-2 -20l-2 -106l227 149l231 -147v149l-231 184q-76 -61 -132 -106t-97 -80v-4zM78 147q4 -82 22.5 -113.5t53.5 -31.5l301 -2q35 0 48 31.5t15 113.5 l-2 134h2v827v174h-153q0 -12 -2.5 -29.5t-3.5 -58.5t-1 -112.5v-193.5v-300t2 -432h-2l4 -2h-122q2 233 2 417.5v322.5v234.5v153.5h-162q0 -43 -1 -74.5t1 -60.5v4z" />
<glyph unicode="&#xfc;" horiz-adv-x="610" d="M16 147l2 996v157h203v-12l78 -78q0 41 1 59.5t3 30.5h195v-12l96 -96v-188l-2 -828l2 -133q-2 -90 -18.5 -125t-59.5 -35l-301 2q-33 0 -53 21l-82 80q-29 10 -44.5 48t-19.5 113zM25 1616h204v-12l58 -62v74h205v-12l96 -97v-82q0 -20 -1 -47.5t-1 -50.5l-189 -2 l-71 72q-2 -16 -2 -35v-35l-189 -2l-96 96h-12zM37 147q4 -82 22.5 -113.5t53.5 -31.5l301 -2q35 0 48 31.5t15 113.5l-2 134h2v827v174h-153q0 -12 -2.5 -29.5t-3.5 -58.5t-1 -112.5v-193.5v-300t2 -432h-2l5 -2h-123q2 233 2 417.5v322.5v234.5v153.5h-162q0 -43 -1 -74.5 t1 -60.5v4zM45 1595l2 -153l160 2q0 43 1 80t1 71h-164zM307 1595l2 -153l160 2q0 43 1 80t1 71h-164z" />
<glyph unicode="&#xfd;" horiz-adv-x="636" d="M16 1300h199v-12l86 -86v98h199v-12l96 -96l14 -1139q14 -131 -80 -170h-221q-14 0 -47 10.5t-67 45.5l-66 63q-31 16 -61.5 54t-42.5 106l198 180v-18l88 -88q-2 39 -2 75.5v75.5q-2 16 -2 34.5v39.5q-47 -20 -91 -36.5t-85 -33.5l-98 96q-4 -2 -5 -2t-5 -2zM37 1280 l6 -764l285 115l6 -477h-129l-2 143l-156 -143q10 -49 32.5 -79t47.5 -47.5t47.5 -22.5t32.5 -5h215q86 35 72 154l-15 1126h-157l6 -483l-131 -54l-2 537h-158zM98 1415l148 281h196l27 -27q-2 -2 -2 -3t-2 -3l98 -96q-31 -59 -57.5 -111.5t-48.5 -93.5q-4 -8 -11.5 -22.5 t-11.5 -20.5h-223l-96 96h-17zM131 1436h193q25 47 54.5 102t65.5 127l-10 10h-176z" />
<glyph unicode="&#xfe;" horiz-adv-x="614" d="M16 1307h203v-13l96 -96v-233q0 -96 -1 -154.5t1 -105.5h27q53 -6 86 -24.5t51 -55.5l72 -72q23 -23 34 -55.5t17 -83.5l-2 -209q-2 -35 -4 -64.5t-8 -56.5t-19.5 -50.5t-38.5 -45.5q-6 0 -14 -4q-10 -4 -28.5 -11.5t-53.5 -15.5q-8 -6 -23.5 -10t-33.5 -10 q-23 -6 -41.5 -11.5t-18.5 -3.5v-385h-190l-96 96h-13zM37 1286l2 -1632h162v371q0 2 18.5 9t41 15t42 14.5t23.5 10.5q39 8 62.5 17t33.5 13q43 41 50 89.5t11 113.5l2 207q-10 86 -40.5 124t-104.5 46l-137 -2q0 57 -1 103t-2 107.5t-1 153v240.5h-162zM199 528h131v-266 l-129 -43z" />
<glyph unicode="&#xff;" horiz-adv-x="634" d="M16 1300h199v-12l86 -86v98h199v-12l96 -96l14 -1139q6 -66 -13 -110.5t-67 -63.5l-221 4q-14 0 -47 10.5t-67 45.5l-66 63q-31 16 -61.5 54t-42.5 106l198 180v-18l88 -88q-2 39 -2 75.5v75.5q-2 16 -2 34.5v39.5q-47 -20 -91 -36.5t-85 -33.5l-98 96q-4 -2 -5 -2t-5 -2 zM23 1423v195h202v-12l58 -58v70h204v-12l97 -97v-82q0 -20 -1 -47.5t-1 -50.5l-191 -2l-69 70q-2 -16 -2.5 -33.5t-0.5 -34.5l-188 -2l-96 96h-12zM37 1280l6 -764l285 115l6 -477h-129l-2 143l-156 -143q10 -49 32.5 -79t47.5 -47.5t47.5 -22.5t32.5 -5l215 -4 q88 35 72 158l-15 1126h-157l6 -483l-131 -54l-2 537h-158zM43 1444l160 2q0 43 1 80t1 71h-162v-153zM303 1444l162 2q0 43 1 80t1 71h-164v-153z" />
<glyph unicode="&#x152;" horiz-adv-x="907" d="M16 -23v1323l406 -4l4 -12q10 2 26.5 5t36.5 7l302 4v-12l96 -96v-182h-287v-197q10 4 17.5 6t17.5 6q23 10 49.5 18.5t46.5 16.5l6 -20l92 -90l62 -175l-291 -106v-297h191v-12l96 -97l2 -180h-459l-305 -2l-96 96h-13zM37 -2l291 2h90h6h348l-2 152h-287v430l287 104 l-53 148l-234 -84v376h287v154l-278 -4q-41 -6 -70 -14q-8 8 -12 14l-373 4v-1282zM195 154v970h127l2 -163l2 -642h-2v-165h-129z" />
<glyph unicode="&#x153;" horiz-adv-x="907" d="M16 -23v1323l406 -4l4 -12q10 2 26.5 5t36.5 7l302 4v-12l96 -96v-182h-287v-197q10 4 17.5 6t17.5 6q23 10 49.5 18.5t46.5 16.5l6 -20l92 -90l62 -175l-291 -106v-297h191v-12l96 -97l2 -180h-459l-305 -2l-96 96h-13zM37 -2l291 2h90h6h348l-2 152h-287v430l287 104 l-53 148l-234 -84v376h287v154l-278 -4q-41 -6 -70 -14q-8 8 -12 14l-373 4v-1282zM195 154v970h127l2 -163l2 -642h-2v-165h-129z" />
<glyph unicode="&#x178;" horiz-adv-x="634" d="M16 1300h199v-12l86 -86v98h199v-12l96 -96l14 -1139q6 -66 -13 -110.5t-67 -63.5l-221 4q-14 0 -47 10.5t-67 45.5l-66 63q-31 16 -61.5 54t-42.5 106l198 180v-18l88 -88q-2 39 -2 75.5v75.5q-2 16 -2 34.5v39.5q-47 -20 -91 -36.5t-85 -33.5l-98 96q-4 -2 -5 -2t-5 -2 zM23 1423v195h202v-12l58 -58v70h204v-12l97 -97v-82q0 -20 -1 -47.5t-1 -50.5l-191 -2l-69 70q-2 -16 -2.5 -33.5t-0.5 -34.5l-188 -2l-96 96h-12zM37 1280l6 -764l285 115l6 -477h-129l-2 143l-156 -143q10 -49 32.5 -79t47.5 -47.5t47.5 -22.5t32.5 -5l215 -4 q88 35 72 158l-15 1126h-157l6 -483l-131 -54l-2 537h-158zM43 1444l160 2q0 43 1 80t1 71h-162v-153zM303 1444l162 2q0 43 1 80t1 71h-164v-153z" />
<glyph unicode="&#x2c6;" horiz-adv-x="655" d="M14 1241q10 10 19.5 17.5t17.5 15.5v4l2 -2q29 27 51.5 44t40.5 32q18 16 42 34.5t46 38.5q12 10 27.5 24.5t30.5 25.5l254 -203v-8l96 -97v-182l-246 156l-239 -158l-99 96l-10 -6l2 146v8l-14 14h-21zM66 1257l6 7l-2 -11v-8v-4v-2v-20l-2 -107l225 150l231 -148v150 l-231 184q-74 -61 -130.5 -106.5t-96.5 -79.5v-5z" />
<glyph unicode="&#x2dc;" horiz-adv-x="620" d="M16 1053l2 141q2 47 10.5 76.5t53.5 38.5l262 -2l-2 -13l14 -12l4 27h105q8 0 10 -2t17 -15q2 0 2 -2q0 -4 2 -4q2 -4 8 -10v-4l84 -84q2 -2 3 -6t5 -8l4 -3l-4 -43v-151q6 -25 -25.5 -48.5t-81.5 -19.5h-206l-29 27l-6 -31h-45q-37 2 -62 27l-78 76q-33 16 -47 45z M37 1057q16 -33 63 -35h33l23 96h-21v76h86l-24 -168h192q41 -4 67.5 13.5t22.5 35.5v156l4 37q-8 10 -11 14t-5 6t-6 1t-15 -1h-67l-14 -94h26v-76h-90l21 168l-238 2q-31 -4 -37 -28.5t-8 -65.5z" />
<glyph unicode="&#x2000;" horiz-adv-x="896" />
<glyph unicode="&#x2001;" horiz-adv-x="1792" />
<glyph unicode="&#x2002;" horiz-adv-x="896" />
<glyph unicode="&#x2003;" horiz-adv-x="1792" />
<glyph unicode="&#x2004;" horiz-adv-x="597" />
<glyph unicode="&#x2005;" horiz-adv-x="448" />
<glyph unicode="&#x2006;" horiz-adv-x="298" />
<glyph unicode="&#x2007;" horiz-adv-x="298" />
<glyph unicode="&#x2008;" horiz-adv-x="224" />
<glyph unicode="&#x2009;" horiz-adv-x="358" />
<glyph unicode="&#x200a;" horiz-adv-x="99" />
<glyph unicode="&#x2010;" horiz-adv-x="686" d="M16 590v41q76 0 143.5 1t134 1h134.5h145v-12l97 -97v-188l-537 -2l-96 96h-12v160h-9zM23 610l22 2v-161l508 2v159h-141.5h-125t-125 -1t-138.5 -1z" />
<glyph unicode="&#x2011;" horiz-adv-x="686" d="M16 590v41q76 0 143.5 1t134 1h134.5h145v-12l97 -97v-188l-537 -2l-96 96h-12v160h-9zM23 610l22 2v-161l508 2v159h-141.5h-125t-125 -1t-138.5 -1z" />
<glyph unicode="&#x2012;" horiz-adv-x="686" d="M16 590v41q76 0 143.5 1t134 1h134.5h145v-12l97 -97v-188l-537 -2l-96 96h-12v160h-9zM23 610l22 2v-161l508 2v159h-141.5h-125t-125 -1t-138.5 -1z" />
<glyph unicode="&#x2013;" horiz-adv-x="929" d="M16 428v199h396.5t404.5 -2v-13l96 -96v-188l-788 4l-96 96h-13zM37 449l760 -5v160q-197 2 -384.5 2h-375.5v-157z" />
<glyph unicode="&#x2014;" horiz-adv-x="1286" d="M16 426v199h314q201 0 413.5 -1t427.5 -3v-13l97 -96l2 -180l-1145 -2l-96 96h-13zM37 446l1116 3l-2 151q-293 4 -566.5 5t-547.5 -1v-158z" />
<glyph unicode="&#x2018;" horiz-adv-x="331" d="M16 1300l121 3v-13l96 -96v-86l82 -82l2 -182h-188l-96 96h-13q-2 35 -3 116t-1 244zM37 1145q0 -53 1 -89t2 -57.5t1 -37.5h160l-2 153h-82v168l-80 -2v-135z" />
<glyph unicode="&#x2019;" horiz-adv-x="329" d="M14 1108v195h201v-13l96 -96v-57q2 -25 2 -65v-93v-133l-104 -2l-96 96h-13l-2 92l-71 76h-13zM35 1128h84l2 -167l76 2v135v89t-1 57.5t-1 37.5h-160v-154z" />
<glyph unicode="&#x201a;" horiz-adv-x="333" d="M14 174h203v-12l96 -96v-66q2 -37 3 -107.5t1 -175.5l-108 -2l-96 97h-13v96l-71 72h-13zM35 154l2 -154h84v-168l80 2q0 82 -1 135.5t-1 89t-1 57t-1 38.5h-162z" />
<glyph unicode="&#x201c;" horiz-adv-x="620" d="M16 1300l121 3v-13l96 -96v-86l70 -74q-2 45 -2 112.5v147.5l121 2v-12l96 -96v-84l84 -84l2 -182h-190l-99 96l2 -90h-188l-96 96h-13q-2 35 -3 116t-1 244zM37 1145q0 -53 1 -89t2 -57.5t1 -37.5h160l-2 153h-82v168l-80 -2v-135zM322 1274q0 -82 1 -135.5t1 -89t1 -57 t1 -38.5h161l-2 154h-84v168z" />
<glyph unicode="&#x201d;" horiz-adv-x="618" d="M14 1108v195h201v-13l84 -84v90h203v-12l96 -96v-66q2 -37 3 -107.5t1 -174.5l-108 -2l-97 96h-12l-2 92l-70 74v-254l-104 -2l-96 96h-13l-2 92l-71 76h-13zM35 1128h84l2 -167l76 2v135v89t-1 57.5t-1 37.5h-160v-154zM319 1122h84l3 -168l79 2q0 82 -1 135.5t-1 89.5 t-1 57.5t-1 37.5h-162v-154z" />
<glyph unicode="&#x201e;" horiz-adv-x="616" d="M16 174h203v-12l78 -82v94h203v-12l96 -96v-66q2 -37 3 -107.5t1 -175.5l-108 -2l-97 97h-12v96l-68 67q2 -41 3 -105.5t1 -152.5l-108 -2l-96 97h-13v96l-71 72h-13zM37 154l2 -154h84v-168l80 2q0 82 -1 135.5t-1 89t-1 57t-1 38.5h-162zM317 154l2 -154h84v-168l80 2 q0 82 -1 135.5t-1 89t-1 57t-1 38.5h-162z" />
<glyph unicode="&#x2022;" horiz-adv-x="581" d="M16 410l4 460h449v-12l96 -96v-90t-2 -97q-2 -29 -2 -59.5v-60.5v-70t2 -72h-438l-96 97h-13zM37 430h409q-4 119 0.5 223.5t2.5 196.5h-408z" />
<glyph unicode="&#x2026;" horiz-adv-x="858" d="M16 174h205v-12l58 -62v74h204v-12l58 -62v74h204v-12l97 -96v-82q0 -20 -1 -48t-1 -51l-189 -2l-71 72q-2 -16 -2 -34.5v-35.5l-189 -2l-72 72q-2 -16 -2 -34.5v-35.5l-188 -2l-96 97h-13zM37 154l2 -154l160 2q0 43 1 80t1 72h-164zM299 154l2 -154l160 2q0 43 1 80 t1 72h-164zM561 154l2 -154l160 2q0 43 1 80t1 72h-164z" />
<glyph unicode="&#x202f;" horiz-adv-x="358" />
<glyph unicode="&#x2039;" d="M14 451l293 503l195 2l-6 -10l98 -98l-281 -496l283 -469h-188l-97 97h-10zM39 453l274 -453h154l-272 453l272 483l-148 -2z" />
<glyph unicode="&#x203a;" horiz-adv-x="616" d="M16 956h205l15 -26l83 -82l283 -467l-291 -496l-178 -2l-96 97h-17l281 501zM55 0l146 2l282 481l-274 453h-154l271 -453z" />
<glyph unicode="&#x205f;" horiz-adv-x="448" />
<glyph unicode="&#x20ac;" horiz-adv-x="716" d="M16 418v194l68 4q0 16 -1 35t-1 35q-2 6 -2 21l-51 53h-13v198h62q0 23 -1 47.5t-1 49.5v104q4 4 8 25q6 20 20.5 48t55.5 68l151 -4h164q14 -16 24.5 -28.5t18.5 -22.5l57 -57q37 -39 51.5 -66.5t20.5 -48.5q4 -16 8 -22l-2 -146h-8l55 -55l-36 -186h-287v-48q8 0 16 -1 t19 -1h31.5t39 -1t37 -1h29.5l-2 -12l98 -96l-22 -182h-242v-43h186v-13l97 -96v-121q0 -90 -21.5 -128t-64.5 -38l-302 2q-31 0 -47 17l-84 84q-31 10 -43 47t-14 114l-4 211l-55 60h-13zM37 438h67l2 -155h3v-136q4 -82 17 -113.5t48 -31.5l301 -2q35 0 53.5 35t18.5 117 v106h-158l2 -106h-125v157l-2 129h244l18 154l-262 4l-4 184h289l31 158h-322l-2 186h123v-102h158l2 127q-4 8 -8.5 20.5t-10.5 28.5t-18.5 35.5t-34.5 42.5h-156v2l-143 2q-23 -23 -35 -42t-18 -34.5t-10.5 -28t-8.5 -20.5l2 -217h-61v-158h63l4 -184l-67 -4v-154z M373 958h41l-41 41v-41z" />
<glyph unicode="&#x2122;" horiz-adv-x="1171" d="M16 1174l2 126h342v-12l97 -96l2 -115h-99v-573l-147 -2l-96 96h-13l2 494l-77 82h-13zM37 1194h92l-4 -576l119 3v573h98l-2 86h-301zM477 660.5q0 31.5 2 52.5v211q0 59 1 115.5t1 97.5l4 67q-4 53 12.5 74.5t55.5 21.5h201l14 -14q6 6 18 14q6 2 11 5l14 -21q4 4 10 4 v12h162q47 0 66 -40l84 -84q18 -20 22 -72l-8 -516q2 -14 2 -36v-48h-150l-59 59v-59h-147l-62 61q-2 -31 -3 -43t-1 -18h-139l-96 96h-13q-2 29 -2 60.5zM500 621h112q0 8 1 26.5t3 75.5t3.5 169t1.5 308h2l-5 2h93q-6 -242 -7.5 -382t1.5 -199h118v67q2 47 2 144.5 t2 285.5v82v2h91q-4 -242 -5.5 -382t-1.5 -199h121v38t-2 29l8 516q-4 41 -16 58.5t-39 17.5h-106.5h-57h-21.5h-3q-2 -2 -4 -2q-2 -2 -3.5 -2t-3.5 -2q-2 -4 -6 -8q-4 -2 -8 -6q-2 -2 -2 -5l-6 9l-8 8l-9 8h-192q-27 0 -38 -16.5t-9 -59.5l-4 -67h-2v-426q-2 -33 0 -90z " />
<glyph unicode="&#xe000;" horiz-adv-x="1300" d="M0 0v1300h1300v-1300h-1300z" />
</font>
</defs>
</svg>
