<?xml version="1.0" standalone="no"?>
<!DOCTYPE svg PUBLIC "-//W3C//DTD SVG 1.1//EN" "http://www.w3.org/Graphics/SVG/1.1/DTD/svg11.dtd" >
<svg>
<metadata>
Created by FontForge 20110222 at Sun Oct 20 01:37:20 2013
 By Orthosie Webhosting
Designed by Jeff Yerkey (www.trek5.com) in honor of Matt Jefferies and Michael Okuda.
</metadata>
<defs>
<font id="JefferiesExtended" horiz-adv-x="550" >
  <font-face 
    font-family="JefferiesExtended"
    font-weight="400"
    font-style="italic"
    font-stretch="normal"
    units-per-em="1000"
    panose-1="0 0 4 0 0 0 0 0 0 0"
    ascent="800"
    descent="-200"
    x-height="620"
    cap-height="729"
    bbox="-50 -305 1616 1066"
    underline-thickness="50"
    underline-position="-75"
    slope="-11"
    unicode-range="U+0020-F002"
  />
<missing-glyph horiz-adv-x="500" 
d="M63 0v817h375v-817h-375zM125 63h250v692h-250v-692z" />
    <glyph glyph-name=".notdef" horiz-adv-x="500" 
d="M63 0v817h375v-817h-375zM125 63h250v692h-250v-692z" />
    <glyph glyph-name=".null" horiz-adv-x="0" 
 />
    <glyph glyph-name="nonmarkingreturn" 
 />
    <glyph glyph-name="space" unicode=" " 
 />
    <glyph glyph-name="exclam" unicode="!" horiz-adv-x="378" 
d="M289 308v502h-219v-502h219zM70 156v-156h219v156h-219z" />
    <glyph glyph-name="quotedbl" unicode="&#x22;" horiz-adv-x="481" 
d="M268 523v291h118v-291h-118zM88 523v291h118v-291h-118z" />
    <glyph glyph-name="numbersign" unicode="#" horiz-adv-x="1029" 
d="M947 532l25 109h-171l37 169h-166l-37 -169h-185l37 169h-167l-37 -169h-168l-24 -109h169l-52 -237h-146l-24 -109h146l-41 -186h167l41 186h184l-40 -186h167l40 186h192l24 109h-192l52 237h169zM559 295h-184l51 237h185z" />
    <glyph glyph-name="dollar" unicode="$" horiz-adv-x="787" 
d="M628 347h-347q-28 0 -45 16.5t-17 43.5q0 51 6 67q13 29 56 29l217 1q18 0 33.5 -16t15.5 -34h169v21q1 123 -95 123h-160v105h-147v-105h-171q-42 0 -68.5 -27t-26.5 -69v-152q0 -41 26.5 -69t68.5 -28h347q27 0 44.5 -17t17.5 -45q0 -50 -7 -66q-12 -30 -55 -30h-217
q-19 0 -34 15.5t-15 34.5h-169v-22q-2 -123 94 -123h165v-107h147v107h167q41 0 67.5 27.5t26.5 69.5v154q0 41 -27 68.5t-67 27.5z" />
    <glyph glyph-name="percent" unicode="%" horiz-adv-x="1666" 
d="M524 810q56 0 93 -37.5t37 -93.5v-232q0 -55 -37.5 -92.5t-91.5 -37.5h-355q-56 0 -93 37t-37 93v232q0 56 36.5 93.5t92.5 37.5h355zM298 696q-39 0 -62 -21.5t-23 -59.5v-104q0 -39 23 -60.5t61 -21.5h99q37 0 60.5 22.5t23.5 59.5v104q0 81 -83 81h-99zM1131 0
q-56 0 -93 38t-37 93v233q0 55 36.5 93t91.5 38h357q57 0 93.5 -37.5t36.5 -93.5v-233q0 -56 -36.5 -93.5t-92.5 -37.5h-356zM1356 114q38 0 62 22t24 59v105q0 81 -84 81h-98q-85 0 -85 -81v-105q0 -81 84 -81h97zM1033 803h-140l-293 -803h133z" />
    <glyph glyph-name="ampersand" unicode="&#x26;" horiz-adv-x="1025" 
d="M46 117v147q0 55 38 86q12 10 70 37q38 18 38 42q0 12 -26.5 51t-26.5 73v52q0 50 32 83.5t83 33.5h520q49 0 82.5 -34t33.5 -83v-45q0 -20 -21 -20h-131q-11 0 -31 26.5t-58 26.5h-237q-33 0 -54 -18t-21 -50q0 -44 37 -64l336 -187q21 -12 41 -12q41 0 48 29t12 58
q4 4 13 4h116q16 0 16 -16v-320q0 -17 -16 -17h-779q-49 0 -82 33.5t-33 83.5zM280 124h256q65 0 65 53q0 31 -39 53l-249 138q-24 13 -42 13q-66 0 -66 -80v-104q0 -73 75 -73z" />
    <glyph glyph-name="quotesingle" unicode="'" horiz-adv-x="297" 
d="M84 517v291h118v-291h-118z" />
    <glyph glyph-name="parenleft" unicode="(" horiz-adv-x="389" 
d="M228 601q0 65 43 65h36v74h-72q-58 0 -108 -99q-21 -39 -39 -116q-23 -96 -24 -185v0v-10v0q1 -89 24 -185q18 -77 39 -116q50 -99 108 -99h72v74h-36q-43 0 -43 64v533z" />
    <glyph glyph-name="parenright" unicode=")" horiz-adv-x="380" 
d="M138 601q0 65 -44 65h-35v74h72q58 0 108 -99q20 -39 38 -116q23 -96 25 -185v0v-10v0q-2 -89 -25 -185q-18 -77 -38 -116q-50 -99 -108 -99h-72v74h35q44 0 44 64v533z" />
    <glyph glyph-name="asterisk" unicode="*" horiz-adv-x="483" 
d="M375 673l24 -73l-105 -32l69 -97l-63 -44l-68 91l-69 -91l-63 44l68 97l-104 32l23 73l102 -34v119h85v-119z" />
    <glyph glyph-name="plus" unicode="+" horiz-adv-x="630" 
d="M256 309v197h112v-197h196v-112h-196v-197h-112v197h-196v112h196z" />
    <glyph glyph-name="comma" unicode="," horiz-adv-x="375" 
d="M84 0q23 1 42 1q74 0 66 -24q-5 -70 -15 -86q26 11 74 59q9 14 26 50v134h-193v-134z" />
    <glyph glyph-name="hyphen" unicode="-" horiz-adv-x="499" 
d="M403 354v-100h-339v100h339z" />
    <glyph glyph-name="hyphen" unicode="&#x2010;" horiz-adv-x="499" 
d="M403 354v-100h-339v100h339z" />
    <glyph glyph-name="period" unicode="." horiz-adv-x="373" 
d="M275 0v0v134h-194v-134h194z" />
    <glyph glyph-name="slash" unicode="/" horiz-adv-x="545" 
d="M494 729l-288 -729h-176l289 729h175z" />
    <glyph glyph-name="zero" unicode="0" horiz-adv-x="1135" 
d="M926 729q49 0 82 -34t33 -84v-493q0 -49 -33 -83.5t-82 -34.5h-733q-50 0 -82.5 34t-32.5 84v493q0 51 32.5 84.5t82.5 33.5h733zM286 532v-334q0 -73 76 -73h394q34 0 55 20t21 53v334q0 73 -76 73h-394q-76 0 -76 -73z" />
    <glyph glyph-name="one" unicode="1" horiz-adv-x="454" 
d="M340 729l-198 -1q-18 0 -29 -17q-6 -9 -64 -114q9 -1 21 -1h19q25 -1 35 -11q13 -13 13 -54v-531h203v729z" />
    <glyph glyph-name="two" unicode="2" horiz-adv-x="1080" 
d="M991 137l-678 1q-32 0 -32 27v30q0 14 12.5 28.5t35.5 17.5l555 55q53 5 84.5 35.5t31.5 82.5v197q0 50 -33 84t-83 34h-236v0h-432q-50 0 -83 -34.5t-33 -83.5v-67h211q7 56 74 56h353q34 0 54 -20t20 -54q0 -59 -9 -77q-14 -30 -65 -35l-523 -53q-50 -5 -82.5 -37.5
t-32.5 -82.5v-224q0 -17 16 -17h875v137z" />
    <glyph glyph-name="three" unicode="3" horiz-adv-x="1057" 
d="M885 379q0 19 33.5 61.5t33.5 77.5v93q0 50 -33 84t-82 34h-612q-114 0 -117 -148q0 -4 -1 -39h184q0 63 72 63h330q34 0 54.5 -19.5t20.5 -53.5q0 -52 -12 -73q-17 -30 -63 -30h-349v-117h361q33 0 53.5 -20t20.5 -54q0 -53 -11 -74q-15 -30 -63 -30h-342q-51 0 -68 43
q-2 14 -2 29h-188v-20v-1v-67q0 -51 32.5 -84.5t83.5 -33.5h638q49 0 82 34t33 84v113q0 42 -23 71q-6 7 -43 37q-23 20 -23 40z" />
    <glyph glyph-name="four" unicode="4" horiz-adv-x="1097" 
d="M906 265q-28 0 -28 28v436h-331q-29 0 -62 -22l-410 -276q-27 -25 -27 -53v-249h613q26 0 26 -26q0 -15 1 -103h181v106q0 23 24 23h135v136h-122zM686 300q0 -33 -33 -33h-308l-105 -1q-15 1 -15 12v48q0 8 14 19q11 7 22 15q20 15 186 123q158 104 179 116q15 9 29 9
q31 0 31 -35v-273z" />
    <glyph glyph-name="five" unicode="5" horiz-adv-x="1076" 
d="M967 729h-854q-15 0 -15 -16v-276q0 -49 32.5 -83.5t82.5 -34.5h492q76 0 76 -96q0 -50 -12 -72q-17 -28 -64 -28h-369q-51 0 -68 44q-2 14 -2 29h-188v-20v-1v-67q0 -50 32 -79t84 -29h672q49 0 82.5 35t33.5 84v197q0 49 -33 83.5t-83 34.5h-523q-76 0 -76 82
q0 46 9 63q14 26 55 26h636v124z" />
    <glyph glyph-name="six" unicode="6" horiz-adv-x="1081" 
d="M878 423h-497q-33 0 -54.5 20t-21.5 53q0 61 9 81q15 35 67 35h351q72 0 72 -71h184l-1 39q-3 149 -117 149h-649q-51 0 -83.5 -33t-32.5 -84v-494q0 -51 32.5 -84.5t83.5 -33.5h657q50 0 83 34.5t33 83.5v187q0 49 -33 83.5t-83 34.5zM793 188q0 -74 -75 -74h-337
q-34 0 -55 20t-21 54v47q0 73 76 73h337q34 0 54.5 -20t20.5 -53v-47z" />
    <glyph glyph-name="seven" unicode="7" horiz-adv-x="987" 
d="M894 729h-804v-125h493q67 0 67 -54q0 -24 -19 -45l-469 -505h235q5 8 5 9h2l494 556q12 14 12 30v118q2 16 -16 16z" />
    <glyph glyph-name="eight" unicode="8" horiz-adv-x="1063" 
d="M934 611v-93q0 -35 -32.5 -74.5t-32.5 -64.5q0 -19 24 -41q37 -34 43 -42q23 -31 23 -71v-107q0 -51 -32 -84.5t-83 -33.5h-661q-50 0 -82.5 33.5t-32.5 84.5v107q0 40 23 71q6 8 43 43q23 22 23 40q0 24 -32 63.5t-32 75.5v93q0 51 32.5 84.5t83.5 33.5h610
q51 0 83 -33.5t32 -84.5zM765 207v31q0 74 -76 74h-350q-76 0 -76 -74v-31q0 -73 76 -73h350q76 0 76 73zM352 605q-34 0 -54.5 -19.5t-20.5 -53.5v-29q0 -34 20.5 -54t54.5 -20h322q76 0 76 74v29q0 34 -20.5 53.5t-55.5 19.5h-322z" />
    <glyph glyph-name="nine" unicode="9" horiz-adv-x="1075" 
d="M179 306h497q33 0 54.5 -20t21.5 -53q0 -61 -9 -81q-15 -35 -67 -35h-351q-72 0 -72 71h-184l1 -39q3 -149 117 -149h649q51 0 83.5 33t32.5 84v494q0 51 -32.5 84.5t-83.5 33.5h-657q-50 0 -83 -34.5t-33 -83.5v-187q0 -49 33 -83.5t83 -34.5zM264 541q0 74 75 74h337
q34 0 55 -20t21 -54v-47q0 -73 -76 -73h-337q-34 0 -54.5 20t-20.5 53v47z" />
    <glyph glyph-name="colon" unicode=":" horiz-adv-x="327" 
d="M248 342h-191v121h191v-121zM248 121h-191v-121h191v121z" />
    <glyph glyph-name="semicolon" unicode=";" horiz-adv-x="341" 
d="M248 342h-188v121h188v-121zM60 0q24 1 42 1q75 0 70 -24q-5 -70 -15 -86q26 11 74 59q9 14 26 50v124h-197v-124z" />
    <glyph glyph-name="less" unicode="&#x3c;" horiz-adv-x="762" 
d="M699 156v-156l-638 220q-18 6 -18 20v245q0 12 18 20q40 16 319 115q293 105 319 109v-158l-515 -164q-34 -11 -34 -33q0 -19 4 -25q6 -9 30 -18z" />
    <glyph glyph-name="equal" unicode="=" horiz-adv-x="654" 
d="M60 332h524v123h-524v-123zM584 224h-524v-124h524v124z" />
    <glyph glyph-name="greater" unicode="&#x3e;" horiz-adv-x="756" 
d="M46 156v-156l637 220q18 6 18 20v245q0 12 -18 20q-40 16 -319 115q-293 105 -318 109v-158l514 -164q34 -11 34 -33q0 -19 -4 -25q-5 -9 -30 -18z" />
    <glyph glyph-name="question" unicode="?" horiz-adv-x="848" 
d="M471 0h-198v128h198v-128zM533 602q76 0 76 -73q0 -50 -12 -71q-17 -31 -64 -31q-15 0 -44.5 1t-43.5 1q-79 0 -113 -24q-46 -32 -44 -119l1 -24h169q-1 63 79 63h144q51 0 83 33.5t32 84.5v169q0 51 -32 84t-83 33h-531q-115 0 -117 -151q0 -4 -1 -38h184q0 62 72 62
h245z" />
    <glyph glyph-name="at" unicode="@" horiz-adv-x="1069" 
d="M767 0h-551q-45 0 -73 28.5t-28 73.5v430q0 45 28.5 74.5t72.5 29.5h624q44 0 72.5 -30t28.5 -74v-358q0 -46 -53 -46h-195q-51 0 -51 50l-9 -8q-77 -46 -159 -46q-59 0 -94.5 33t-35.5 93q0 56 39.5 87.5t104.5 31.5q56 0 100 -19v25q0 22 -17 28q-11 4 -50 4
q-23 0 -81 -6t-60 -6q-15 0 -15 14v54q0 14 13 14q-4 0 58 4.5t104 4.5q84 0 122.5 -27.5t38.5 -89.5v-166q0 -15 17 -15h46q17 0 17 15v276q0 64 -67 64h-380q-67 0 -67 -64v-323q0 -64 67 -64h434q13 0 13 -14v-64q0 -14 -14 -14zM588 225v57q-35 14 -75 14q-59 0 -59 -45
q0 -44 59 -44q32 0 75 18z" />
    <glyph glyph-name="A" unicode="A" horiz-adv-x="1226" 
d="M1189 0h-223q-31 65 -60 117q-13 23 -54 23h-475q-42 0 -53 -23q-8 -13 -61 -117h-223l397 729h353zM813 292q0 11 -9 29l-132 262q-16 32 -30 32h-56q-14 0 -30 -32l-129 -261q-10 -18 -10 -29q0 -28 37 -28h322q37 0 37 27z" />
    <glyph glyph-name="B" unicode="B" horiz-adv-x="1166" 
d="M1090 121q0 -44 -30 -82.5t-70 -38.5h-898v729h857q49 0 78 -32.5t29 -82.5v-103q0 -30 -28 -64t-28 -61q0 -18 24 -41q37 -36 43 -45q23 -31 23 -71v-108zM856 549q0 60 -61 60l-462 -1q-32 0 -32 -32v-116q0 -32 32 -32h461q62 0 62 60v61zM857 224l-1 14q-5 72 -76 72
h-447q-32 0 -32 -33v6v-125q0 -32 32 -32h462q62 0 62 60v38z" />
    <glyph glyph-name="C" unicode="C" horiz-adv-x="1117" 
d="M1041 118q0 -49 -33 -83.5t-82 -34.5h-733q-50 0 -82.5 34t-32.5 84v493q0 51 32.5 84.5t82.5 33.5h733q49 0 82 -34t33 -84v-67h-210q-8 61 -75 61h-394q-76 0 -76 -73v-334q0 -73 76 -73h394q32 0 52.5 18t22.5 48h210v-73z" />
    <glyph glyph-name="D" unicode="D" horiz-adv-x="1120" 
d="M1036 121q0 -44 -28.5 -82.5t-68.5 -38.5h-869v729h857q49 0 79 -32.5t30 -82.5v-493zM831 186v363q0 59 -62 59h-494v-482h495q61 0 61 60z" />
    <glyph glyph-name="E" unicode="E" horiz-adv-x="1028" 
d="M956 0h-855v729h855v-124h-582q-40 0 -54 -24q-10 -18 -10 -60q0 -47 9 -65q14 -27 55 -27h532v-123h-532q-40 0 -54 -24q-10 -17 -10 -59q0 -51 8 -69q13 -29 56 -29h582v-125z" />
    <glyph glyph-name="F" unicode="F" horiz-adv-x="985" 
d="M937 605h-582q-39 0 -53 -23q-11 -18 -11 -58q0 -50 8 -66q12 -29 56 -29h532v-123h-532q-38 0 -52 -23q-11 -17 -11 -56v-227h-210v729h855v-124z" />
    <glyph glyph-name="G" unicode="G" horiz-adv-x="1186" 
d="M1110 118q0 -51 -32.5 -84.5t-82.5 -33.5h-816q-50 0 -82.5 33.5t-32.5 84.5v493q0 51 32.5 84.5t82.5 33.5h816q117 0 115 -150v-35h-206q0 23 -16 39t-38 16q9 0 -64 0h-438q-34 0 -55 -19.5t-21 -53.5v-323q0 -73 76 -73h510q51 0 51 86q0 11 -1 25.5t-1 17.5
q0 15 -24 15h-391v115h618v-271z" />
    <glyph glyph-name="H" unicode="H" horiz-adv-x="1176" 
d="M1094 0h-209v258q0 22 -15 38t-39 16h-479q-22 0 -37.5 -15.5t-15.5 -37.5v-259h-209v729h209v-242q0 -20 15 -35.5t40 -15.5h479q22 0 37 16.5t15 38.5v238h209v-729z" />
    <glyph glyph-name="I" unicode="I" horiz-adv-x="354" 
d="M278 0h-207v729h207v-729z" />
    <glyph glyph-name="J" unicode="J" horiz-adv-x="1030" 
d="M935 118q0 -49 -33 -83.5t-82 -34.5h-610q-50 0 -82.5 34t-32.5 84v140h200v-60q0 -73 75 -73h280q34 0 55 20t21 53v531h209v-611z" />
    <glyph glyph-name="K" unicode="K" horiz-adv-x="1062" 
d="M1029 0h-307l-327 287q-28 24 -66 24q-75 0 -75 -73v-238h-208v729h208v-220q0 -73 68 -73q35 0 47 2q22 5 43 23l309 268h256l-353 -304q-34 -29 -34 -54t38 -55z" />
    <glyph glyph-name="L" unicode="L" horiz-adv-x="891" 
d="M850 125v-125h-773v729h209v-540q0 -31 15 -47.5t49 -16.5h500z" />
    <glyph glyph-name="M" unicode="M" horiz-adv-x="1559" 
d="M1481 1h-196v558q0 31 -25 31h-26q-14 0 -33 -32l-324 -541q-8 -17 -28 -17h-129q-21 0 -28 17l-326 541q-19 32 -33 32h-26q-25 0 -25 -31v-558h-208v728h385l282 -439q13 -28 43 -28q31 0 44 28l279 439h374v-728z" />
    <glyph glyph-name="N" unicode="N" horiz-adv-x="1233" 
d="M1147 0h-407l-385 558q-21 31 -32 31h-27q-25 0 -25 -30v-559h-201v729h404l388 -558q22 -31 37 -31h22q25 0 25 30v559h201v-729z" />
    <glyph glyph-name="O" unicode="O" horiz-adv-x="1139" 
d="M1045 118q0 -49 -33 -83.5t-82 -34.5h-733q-50 0 -82.5 34t-32.5 84v493q0 51 32.5 84.5t82.5 33.5h733q49 0 82 -34t33 -84v-493zM836 198v334q0 73 -76 73h-394q-76 0 -76 -73v-334q0 -73 76 -73h394q34 0 55 20t21 53z" />
    <glyph glyph-name="P" unicode="P" horiz-adv-x="1103" 
d="M1053 412q0 -51 -32.5 -84t-83.5 -33h-605q-32 0 -32 -32v-263h-209v729h846q51 0 83.5 -34t32.5 -85v-198zM849 546q0 60 -62 60l-455 -1q-32 0 -32 -32v-124q0 -32 32 -32l455 1q62 0 62 60v68z" />
    <glyph glyph-name="Q" unicode="Q" horiz-adv-x="1233" 
d="M1195 -43q-111 1 -223 42h-778q-51 0 -83 33.5t-32 84.5v495q0 50 32 84t83 34h830q49 0 82.5 -34.5t33.5 -83.5v-503h55v-152zM931 218v308q0 34 -21 54t-55 20h-492q-33 0 -54.5 -20.5t-21.5 -53.5v-323q0 -74 76 -74h436q-44 15 -48 66v23h180z" />
    <glyph glyph-name="R" unicode="R" horiz-adv-x="1137" 
d="M1060 0h-211v224q0 33 -21 52.5t-54 19.5h-441q-32 0 -32 -33v-263h-208v729h847q50 0 83 -34t33 -84v-113q0 -30 -46 -69.5t-46 -66.5q0 -19 25 -42q39 -36 46 -44q25 -32 25 -72v-204zM850 546q0 60 -62 60l-455 -2q-32 0 -32 -31v-124q0 -32 32 -32h455q62 0 62 60v69
z" />
    <glyph glyph-name="S" unicode="S" horiz-adv-x="1084" 
d="M999 118q0 -51 -32.5 -84.5t-83.5 -33.5h-691q-117 0 -115 150v26h205q0 -22 19 -41.5t41 -19.5l373 1q53 0 68 35q8 20 8 82q0 33 -21 53.5t-55 20.5h-531q-50 0 -82.5 34.5t-32.5 85.5v184q0 51 32 84.5t83 33.5h692q117 0 115 -150l-1 -26h-205q0 22 -19 41.5
t-41 19.5l-373 -1q-53 0 -67 -35q-8 -20 -8 -82q0 -33 21 -53t54 -20h532q49 0 82 -34t33 -84v-187z" />
    <glyph glyph-name="T" unicode="T" horiz-adv-x="1047" 
d="M986 597h-293q-68 0 -68 -56v-541h-201v541q0 56 -63 56h-295v132h920v-132z" />
    <glyph glyph-name="U" unicode="U" horiz-adv-x="1199" 
d="M1104 118q0 -49 -33 -83.5t-82 -34.5h-789q-50 0 -82.5 33.5t-32.5 84.5v611h207v-531q0 -73 76 -73h452q33 0 54 20t21 53v531h209v-611z" />
    <glyph glyph-name="V" unicode="V" horiz-adv-x="1156" 
d="M1131 729l-390 -712q-9 -17 -27 -17h-285q-18 0 -28 17q-9 14 -389 712h220q4 -12 290 -568q16 -32 30 -32h41q13 0 30 32l288 568h220z" />
    <glyph glyph-name="W" unicode="W" horiz-adv-x="1638" 
d="M1609 727l-232 -571q-17 -47 -56 -139q-8 -17 -25 -17h-284q-20 0 -25 17l-129 456q-8 29 -41 29q-37 0 -45 -29l-128 -456q-4 -17 -24 -17h-284q-18 0 -26 17q-18 46 -55 139l-229 571h217l196 -565q10 -29 42 -29q22 0 29 3.5t13 24.5l153 543q7 25 33 25h214
q25 0 32 -25l153 -543q8 -29 44 -29q17 0 24.5 4.5t14.5 25.5l197 565h221z" />
    <glyph glyph-name="X" unicode="X" horiz-adv-x="1103" 
d="M1071 0h-262l-190 227l-22 26q-16 14 -45 14q-31 0 -48 -14q-4 -3 -23 -26l-191 -227h-262q13 12 321 334q21 22 21 39q0 19 -21 40l-316 316h261l198 -229q26 -30 53 -30h9q27 0 53 30l198 229h261l-316 -316q-21 -21 -21 -40q0 -17 21 -39q110 -117 321 -334z" />
    <glyph glyph-name="Y" unicode="Y" horiz-adv-x="1064" 
d="M1061 729q-4 -9 -177 -204q-96 -109 -193 -217q-38 -45 -38 -92v-216h-201v218q0 36 -6 52.5t-22 33.5l-389 424h259l205 -259q24 -30 51 -30q37 0 61 30l201 260h249z" />
    <glyph glyph-name="Z" unicode="Z" horiz-adv-x="1044" 
d="M980 0h-882q-15 0 -25 10.5t-10 24.5v94q0 17 15 28l530 375q14 10 14 29q0 15 -10.5 25.5t-25.5 10.5h-523v132h882q14 0 24.5 -10.5t10.5 -24.5v-95q0 -17 -16 -28l-530 -375q-14 -10 -14 -29q0 -15 11 -25.5t26 -10.5h523v-131z" />
    <glyph glyph-name="bracketleft" unicode="[" horiz-adv-x="385" 
d="M136 0h168v89h-52q-26 0 -42 15t-16 41v435q3 60 58 60h52v89h-168q-73 0 -73 -90v-548q0 -91 73 -91z" />
    <glyph glyph-name="backslash" unicode="\" horiz-adv-x="551" 
d="M48 729l288 -729h177l-289 729h-176z" />
    <glyph glyph-name="bracketright" unicode="]" horiz-adv-x="409" 
d="M242 0h-168v89h52q26 0 42 15t16 41v435q-3 60 -58 60h-52v89h168q72 0 72 -90v-548q0 -91 -72 -91z" />
    <glyph glyph-name="asciicircum" unicode="^" horiz-adv-x="567" 
d="M170 264h-98l162 337h90l162 -337h-99l-108 236z" />
    <glyph glyph-name="underscore" unicode="_" horiz-adv-x="572" 
d="M612 -103h-651v54h651v-54z" />
    <glyph glyph-name="grave" unicode="`" horiz-adv-x="335" 
d="M156 544l-78 131h111l58 -131h-91z" />
    <glyph glyph-name="a" unicode="a" horiz-adv-x="1038" 
d="M1000 0h-189q-26 55 -51 100q-11 19 -45 19h-405q-35 0 -45 -19q-6 -11 -52 -100h-189l338 620h299zM681 248q0 9 -8 25l-112 223q-13 27 -25 27h-48q-12 0 -25 -27l-110 -222q-8 -16 -8 -25q0 -24 31 -24h274q31 0 31 23z" />
    <glyph glyph-name="b" unicode="b" horiz-adv-x="980" 
d="M915 103q0 -38 -25 -69q-26 -34 -60 -34h-764v620h729q42 0 66.5 -27.5t24.5 -70.5v-87q0 -26 -23.5 -55t-23.5 -52q0 -15 38 -52t38 -81v-92zM716 467q0 51 -52 51l-393 -1q-27 0 -27 -27v-99q0 -27 27 -27h392q53 0 53 51v52zM716 190v12q-4 62 -65 62h-380
q-27 0 -27 -28v4v-106q0 -27 27 -27h393q52 0 52 51v32z" />
    <glyph glyph-name="c" unicode="c" horiz-adv-x="939" 
d="M878 100q0 -42 -28 -71t-70 -29h-623q-43 0 -70.5 28.5t-27.5 71.5v419q0 44 27.5 72.5t70.5 28.5h623q42 0 70 -29t28 -72v-56h-179q-7 51 -63 51h-336q-64 0 -64 -62v-283q0 -63 64 -63h336q59 0 63 56h179v-62z" />
    <glyph glyph-name="d" unicode="d" horiz-adv-x="979" 
d="M891 103q0 -38 -23 -69q-25 -34 -60 -34h-738v620h728q42 0 67.5 -28t25.5 -70v-419zM717 158v309q0 50 -53 50h-420l1 -410h420q52 0 52 51z" />
    <glyph glyph-name="e" unicode="e" horiz-adv-x="847" 
d="M794 0h-726v620h726v-106h-494q-34 0 -46 -21q-8 -15 -8 -51q0 -41 7 -55q11 -22 47 -22h453v-105h-453q-34 0 -46 -21q-8 -14 -8 -50q0 -44 6 -58q10 -25 48 -25h494v-106z" />
    <glyph glyph-name="f" unicode="f" horiz-adv-x="820" 
d="M779 514h-494q-33 0 -45 -20q-9 -14 -9 -48q0 -43 6 -57q11 -24 48 -24h453v-105h-453q-32 0 -44 -19q-9 -15 -9 -48v-193h-179v620h726v-106z" />
    <glyph glyph-name="g" unicode="g" horiz-adv-x="1009" 
d="M939 100q0 -43 -27.5 -71.5t-70.5 -28.5h-693q-43 0 -70.5 28.5t-27.5 71.5v419q0 44 27.5 72.5t70.5 28.5h693q100 0 98 -128v-29h-175q0 19 -13.5 32.5t-32.5 13.5q8 0 -54 0h-373q-29 0 -46.5 -16.5t-17.5 -45.5v-274q0 -63 64 -63h434q43 0 43 74q0 9 -1 21v15
q0 13 -21 13h-332v97h525v-230z" />
    <glyph glyph-name="h" unicode="h" horiz-adv-x="999" 
d="M927 0h-178v220q0 18 -13 31.5t-33 13.5h-407q-19 0 -32 -13t-13 -32v-220h-178v620h178v-206q0 -17 13 -30.5t33 -13.5h407q19 0 32 14.5t13 32.5v203h178v-620z" />
    <glyph glyph-name="i" unicode="i" horiz-adv-x="314" 
d="M248 0h-176v620h176v-620z" />
    <glyph glyph-name="j" unicode="j" horiz-adv-x="839" 
d="M767 100q0 -42 -28.5 -71t-70.5 -29h-517q-44 0 -71.5 28.5t-27.5 71.5v119h170v-50q0 -63 65 -63h237q29 0 47 17.5t18 45.5v451h178v-520z" />
    <glyph glyph-name="k" unicode="k" horiz-adv-x="905" 
d="M889 0h-261l-278 244q-24 21 -56 21q-64 0 -64 -63v-202h-177v620h177v-187q0 -63 58 -63q51 0 76 22l263 228h218l-301 -259q-28 -24 -28 -46q0 -21 32 -46z" />
    <glyph glyph-name="l" unicode="l" horiz-adv-x="740" 
d="M702 107v-107h-657v620h178v-459q0 -27 12.5 -40.5t41.5 -13.5h425z" />
    <glyph glyph-name="m" unicode="m" horiz-adv-x="1336" 
d="M1262 0h-167v474q0 27 -21 27h-22q-12 0 -28 -27l-276 -460q-6 -14 -23 -14h-110q-17 0 -24 14l-277 460q-16 27 -28 27h-22q-21 0 -21 -27v-474h-177v619h328l239 -373q11 -24 37 -24t37 24l237 373h318v-619z" />
    <glyph glyph-name="n" unicode="n" horiz-adv-x="1076" 
d="M1000 0h-346l-327 474q-19 27 -28 27h-23q-21 0 -21 -26v-475h-171v620h343l330 -475q19 -26 32 -26h19q21 0 21 26v475h171v-620z" />
    <glyph glyph-name="o" unicode="o" horiz-adv-x="994" 
d="M907 100q0 -42 -28 -71t-70 -29h-623q-43 0 -70.5 28.5t-27.5 71.5v419q0 44 27.5 72.5t70.5 28.5h623q42 0 70 -29t28 -72v-419zM729 169v283q0 62 -64 62h-336q-64 0 -64 -62v-283q0 -63 64 -63h336q28 0 46 17.5t18 45.5z" />
    <glyph glyph-name="p" unicode="p" horiz-adv-x="926" 
d="M876 350q0 -43 -27.5 -71.5t-70.5 -28.5h-515q-27 0 -27 -27v-223h-177l-1 620h720q43 0 70.5 -29t27.5 -72v-169zM702 464q0 51 -52 51l-387 -1q-27 0 -27 -27v-105q0 -27 27 -27h387q52 0 52 51v58z" />
    <glyph glyph-name="q" unicode="q" horiz-adv-x="1063" 
d="M1028 -37q-94 1 -189 36h-661q-43 0 -70.5 28.5t-27.5 71.5v421q0 43 27.5 72t70.5 29h705q42 0 70 -29.5t28 -71.5l1 -427h46v-130zM804 185v262q0 63 -65 63h-417q-29 0 -47 -17.5t-18 -45.5v-275q0 -62 65 -62h370q-38 12 -41 56v19h153z" />
    <glyph glyph-name="r" unicode="r" horiz-adv-x="971" 
d="M901 0h-179v190q0 29 -18 45t-47 16h-374q-27 0 -27 -28v-223h-177v620h720q42 0 70 -29t28 -72v-96q0 -26 -38.5 -59.5t-38.5 -55.5q0 -16 40.5 -53t40.5 -81v-174zM722 464q0 51 -52 51l-387 -1q-27 0 -27 -27v-105q0 -27 27 -27h387q52 0 52 51v58z" />
    <glyph glyph-name="s" unicode="s" horiz-adv-x="942" 
d="M869 100q0 -43 -28.5 -71.5t-71.5 -28.5h-586q-99 0 -98 128l1 22h174q0 -19 16 -35.5t35 -16.5h317q45 0 58 31q7 16 7 69q0 28 -18 45.5t-47 17.5h-451q-43 0 -70.5 29.5t-27.5 72.5v157q0 43 27.5 71.5t70.5 28.5h588q99 0 98 -128l-1 -22h-174q0 19 -16 35.5
t-35 16.5l-317 -1q-45 0 -58 -30q-7 -17 -7 -69q0 -28 18 -45t47 -17h451q42 0 70 -29t28 -71v-160z" />
    <glyph glyph-name="t" unicode="t" horiz-adv-x="871" 
d="M825 508h-249q-58 0 -58 -48v-460h-171v460q0 48 -53 48h-251v112h782v-112z" />
    <glyph glyph-name="u" unicode="u" horiz-adv-x="1012" 
d="M939 100q0 -42 -28 -71t-70 -29h-670q-43 0 -70.5 28.5t-27.5 71.5v520h176v-452q0 -62 64 -62h384q29 0 47 17t18 45v452h177v-520z" />
    <glyph glyph-name="v" unicode="v" horiz-adv-x="987" 
d="M973 620l-331 -606q-8 -14 -24 -14h-241q-16 0 -24 13.5t-331 606.5h187q3 -10 247 -484q13 -26 25 -26h35q11 0 25 26l245 484h187z" />
    <glyph glyph-name="w" unicode="w" horiz-adv-x="1409" 
d="M1387 618l-197 -485q-15 -41 -48 -119q-7 -14 -22 -14h-241q-17 0 -21 14l-110 388q-6 25 -34 25q-32 0 -39 -25l-108 -388q-4 -14 -21 -14h-242q-15 0 -21 14q-16 40 -47 119l-195 485h184l167 -480q9 -25 36 -25q19 0 23 2q8 4 13 22l130 461q6 22 28 22h182
q20 0 26 -22l131 -461q7 -25 37 -25q15 0 21 4t12 22l168 480h188z" />
    <glyph glyph-name="x" unicode="x" horiz-adv-x="967" 
d="M926 0h-223l-162 193l-18 22q-14 12 -39 12q-26 0 -40 -12q-4 -2 -20 -22l-162 -193h-223q11 11 273 284q18 19 18 33q0 16 -18 34l-269 269h222l168 -195q23 -25 45 -25h8q23 0 45 25l169 195h222l-269 -269q-18 -18 -18 -34q0 -14 18 -33q93 -100 273 -284z" />
    <glyph glyph-name="y" unicode="y" horiz-adv-x="900" 
d="M890 620q-145 -166 -314 -358q-33 -38 -33 -78v-184h-171v185q0 31 -5 45t-18 29l-331 360h220l174 -220q20 -26 44 -26q32 0 51 26l171 221h212z" />
    <glyph glyph-name="z" unicode="z" horiz-adv-x="901" 
d="M837 0h-750q-30 0 -30 30v80q0 14 13 23l451 319q12 8 12 25q0 31 -31 31l-445 -1v113l750 -1q29 0 29 -30l1 -80q0 -14 -14 -23l-450 -319q-12 -9 -12 -25q0 -31 31 -31h445v-111z" />
    <glyph glyph-name="braceleft" unicode="{" horiz-adv-x="505" 
d="M66 319v92q69 0 69 47v159q0 51 47 82q39 25 86 25h152v-108h-35q-58 0 -58 -50v-125q0 -38 -39 -58q-29 -15 -73 -16v-3q112 -6 112 -81v-125q0 -50 58 -50h35v-108h-152q-47 0 -86 25q-47 31 -47 82v158q0 54 -69 54z" />
    <glyph glyph-name="bar" unicode="|" horiz-adv-x="312" 
d="M78 -8v740h138v-740h-138z" />
    <glyph glyph-name="braceright" unicode="}" horiz-adv-x="509" 
d="M72 0v108h35q58 0 58 50v125q0 38 39 58q30 15 73 16v3q-112 6 -112 81v125q0 50 -58 50h-35v108h152q47 0 86 -25q47 -31 47 -82v-158q0 -54 69 -54v-92q-69 0 -69 -47v-159q0 -51 -47 -82q-39 -25 -86 -25h-152z" />
    <glyph glyph-name="asciitilde" unicode="~" horiz-adv-x="637" 
d="M120 145v0l-36 125q45 86 125 86q40 0 115 -34t98 -34q40 0 88 73l36 -125q-30 -42 -51 -59q-33 -27 -74 -27q-37 0 -102.5 34t-113.5 34q-52 0 -85 -73z" />
    <glyph glyph-name="nonbreakingspace" unicode="&#xa0;" 
 />
    <glyph glyph-name="exclamdown" unicode="&#xa1;" horiz-adv-x="316" 
d="M77 391v141h146v-141h-146zM73 -3l40 336h74l40 -336v-183h-154v183z" />
    <glyph glyph-name="cent" unicode="&#xa2;" horiz-adv-x="794" 
d="M253 452h295q50 0 56 -45h156v50q0 37 -24.5 62t-61.5 25h-141l21 91h-134l-21 -91h-271q-38 0 -62 -24.5t-24 -62.5v-368q0 -38 24 -63t62 -25h167l-22 -95h135l22 95h244q37 0 61.5 25.5t24.5 62.5v54h-156q-5 -49 -56 -49h-295q-56 0 -56 55v248q0 55 56 55z" />
    <glyph glyph-name="sterling" unicode="&#xa3;" horiz-adv-x="960" 
d="M50 0v142q76 5 76 95q0 20 -2 40h-91v118h88q-5 56 -5 107q0 127 80 173q62 37 214 37h209q160 0 225 -58q55 -50 57 -163h-178q-1 48 -19 66.5t-66 18.5h-236q-54 0 -73 -16t-19 -59v-106h317v-118h-317q0 -44 -8 -66q-11 -29 -44 -51v-18h655v-142h-863z" />
    <glyph glyph-name="currency" unicode="&#xa4;" horiz-adv-x="757" 
d="M236 362q0 -63 39.5 -108.5t102.5 -45.5q62 0 102 45.5t40 108.5t-40 108.5t-102 45.5q-63 0 -102.5 -45.5t-39.5 -108.5zM98 362q0 89 49 159l-63 64l76 76l64 -65q71 46 154 46q85 0 154 -46l64 65l76 -76l-63 -64q49 -71 49 -159t-49 -158l63 -65l-76 -76l-64 66
q-68 -47 -154 -47q-83 0 -154 46l-64 -65l-76 76l63 64q-49 71 -49 159z" />
    <glyph glyph-name="yen" unicode="&#xa5;" horiz-adv-x="852" 
d="M770 405v-60h-217l-50 -75h267v-60h-269v-210h-167v210h-267v60h267l-52 75h-215v60h173l-204 293h197l189 -294l182 294h187l-197 -293h176z" />
    <glyph glyph-name="brokenbar" unicode="&#xa6;" horiz-adv-x="299" 
d="M71 -8v288h138v-288h-138zM71 444v288h138v-288h-138z" />
    <glyph glyph-name="section" unicode="&#xa7;" horiz-adv-x="779" 
d="M248 346l231 -44q37 -7 58 -7q47 0 47 54q0 36 -50 45l-290 53q-27 5 -24 5q-12 0 -21.5 -15t-9.5 -32q0 -48 59 -59zM79 151h156v-26q0 -37 80 -37h154q59 0 59 45q0 23 -13 32t-52 16l-297 55q-47 9 -76 38q-33 33 -33 84q0 99 104 112v2q-74 34 -74 118q0 142 157 142
h262q152 0 152 -119v-19h-150q0 26 -11.5 34t-40.5 8h-165q-48 0 -48 -37q0 -33 69 -43l241 -36q88 -13 124 -46q33 -30 33 -88q0 -104 -108 -109v-2q82 -34 82 -135q0 -71 -30 -105q-39 -43 -138 -43h-282q-75 0 -112 28q-43 32 -43 109v22z" />
    <glyph glyph-name="dieresis" unicode="&#xa8;" horiz-adv-x="605" 
d="M243 808v-133h-172v133h172zM510 808v-133h-172v133h172z" />
    <glyph glyph-name="copyright" unicode="&#xa9;" horiz-adv-x="543" 
d="M399 808q21 0 35 -14.5t14 -35.5v-208q0 -21 -14 -35.5t-35 -14.5h-295q-21 0 -34.5 14.5t-13.5 35.5v208q0 22 13.5 36t34.5 14h295zM114 725v-141q0 -31 32 -31h209q32 0 32 31v141q0 31 -32 31h-209q-32 0 -32 -31zM310 615q-1 -14 -16 -14h-85q-17 0 -17 16v74
q0 16 17 16h85q14 0 16 -13h45v15q0 26 -25 26h-158q-24 0 -24 -26v-110q0 -26 24 -26h158q25 0 25 26v16h-45z" />
    <glyph glyph-name="ordfeminine" unicode="&#xaa;" horiz-adv-x="460" 
d="M363 644v-173q0 -43 21 -49v-13h-98q-6 17 -8 38q-49 -46 -112 -46q-44 0 -73 22q-34 25 -34 71q0 90 102 104l82 11q32 4 32 23q0 34 -60 34q-50 0 -56 -41h-87q6 66 54 93q34 19 100 19q51 0 87 -17q50 -24 50 -76zM275 525v40q-16 -11 -62 -17q-60 -8 -60 -49
q0 -37 41 -37q32 0 56.5 17.5t24.5 45.5zM70 356h300v-80h-300v80z" />
    <glyph glyph-name="guillemotleft" unicode="&#xab;" horiz-adv-x="552" 
d="M247 368l-100 -88l100 -88v-116l-167 144v120l167 144v-116zM460 368l-100 -88l100 -88v-116l-167 144v120l167 144v-116z" />
    <glyph glyph-name="logicalnot" unicode="&#xac;" horiz-adv-x="679" 
d="M471 108v199h-392v112h504v-311h-112z" />
    <glyph glyph-name="minus" unicode="&#xad;" horiz-adv-x="689" 
d="M87 184v138h506v-138h-506z" />
    <glyph glyph-name="minus" unicode="&#x2212;" horiz-adv-x="689" 
d="M87 184v138h506v-138h-506z" />
    <glyph glyph-name="registered" unicode="&#xae;" horiz-adv-x="544" 
d="M356 682v24q0 24 -24 24h-178v-153h44v55q0 7 7 7h92q16 0 16 -15v-47h44v43q0 11 -10 20t-10 13q0 6 9.5 14t9.5 15zM313 677q0 -12 -13 -12h-95q-7 0 -7 6v27q0 6 7 6h95q13 0 13 -12v-15zM399 807q21 0 35 -14t14 -35v-208q0 -21 -14 -35.5t-35 -14.5h-295
q-21 0 -34.5 14.5t-13.5 35.5v208q0 21 13.5 35t34.5 14h295zM114 724v-140q0 -31 32 -31h209q32 0 32 31v140q0 31 -32 31h-209q-32 0 -32 -31z" />
    <glyph glyph-name="macron" unicode="&#xaf;" horiz-adv-x="655" 
d="M74 634v114h482v-114h-482z" />
    <glyph glyph-name="macron" unicode="&#x2c9;" horiz-adv-x="655" 
d="M74 634v114h482v-114h-482z" />
    <glyph glyph-name="degree" unicode="&#xb0;" horiz-adv-x="450" 
d="M79 569q0 59 42 101t101 42q60 0 101.5 -42t41.5 -101t-41.5 -101t-101.5 -42q-59 0 -101 42t-42 101zM135 569q0 -36 25.5 -61.5t61.5 -25.5t61.5 25.5t25.5 61.5t-25.5 61.5t-61.5 25.5t-61.5 -25.5t-25.5 -61.5z" />
    <glyph glyph-name="plusminus" unicode="&#xb1;" horiz-adv-x="636" 
d="M254 381v125h112v-125h196v-112h-196v-126h-112v126h-196v112h196zM58 0v112h504v-112h-504z" />
    <glyph glyph-name="twosuperior" unicode="&#xb2;" horiz-adv-x="706" 
d="M66 293v147q0 85 131 94l146 10q80 5 96 10t16 26q0 35 -33 42q-7 2 -63 2h-57q-42 0 -56 -7q-24 -10 -24 -47v-3h-156v51q0 63 42.5 88.5t141.5 25.5h190q98 0 136 -30q35 -28 35 -98q0 -96 -31.5 -124t-142.5 -34l-149 -8q-25 -1 -37 -4q-24 -4 -30 -16q-3 -6 -3 -17
h402v-108h-554z" />
    <glyph glyph-name="threesuperior" unicode="&#xb3;" horiz-adv-x="715" 
d="M69 399v46h156q0 -35 15 -45q10 -7 48 -7h129q32 0 42 9q8 6 8 26q0 29 -52 29h-126v102h113q55 0 55 27q0 38 -65 38h-103q-33 0 -44 -7q-17 -9 -17 -39h-156v24q0 84 53 109q44 21 186 21h95q125 0 166 -24t41 -97q0 -53 -14 -70t-64 -31v-2q56 -8 72 -28.5t16 -74.5
q0 -67 -32 -92q-35 -28 -131 -28h-237q-154 0 -154 114z" />
    <glyph glyph-name="acute" unicode="&#xb4;" horiz-adv-x="278" 
d="M265 810l-147 -146h-101l94 146h154z" />
    <glyph glyph-name="mu" unicode="&#xb5;" horiz-adv-x="652" 
d="M558 532v-532h-134v75h-2q-23 -42 -57.5 -65.5t-66.5 -23.5q-53 0 -79 26v-219h-140v739h140v-330q0 -98 91 -98q42 0 71 25q37 32 37 96v307h140z" />
    <glyph glyph-name="mu" unicode="&#x3bc;" horiz-adv-x="652" 
d="M558 532v-532h-134v75h-2q-23 -42 -57.5 -65.5t-66.5 -23.5q-53 0 -79 26v-219h-140v739h140v-330q0 -98 91 -98q42 0 71 25q37 32 37 96v307h140z" />
    <glyph glyph-name="paragraph" unicode="&#xb6;" horiz-adv-x="737" 
d="M300 0v375q-107 0 -165 45t-58 126q0 100 71 143q58 35 175 35h318v-724h-138v622h-65v-622h-138z" />
    <glyph glyph-name="periodcentered" unicode="&#xb7;" horiz-adv-x="422" 
d="M91 346q0 50 35 85t85 35q49 0 84.5 -35t35.5 -85q0 -49 -35.5 -84.5t-84.5 -35.5q-50 0 -85 35.5t-35 84.5z" />
    <glyph glyph-name="periodcentered" unicode="&#x2219;" horiz-adv-x="422" 
d="M91 346q0 50 35 85t85 35q49 0 84.5 -35t35.5 -85q0 -49 -35.5 -84.5t-84.5 -35.5q-50 0 -85 35.5t-35 84.5z" />
    <glyph glyph-name="cedilla" unicode="&#xb8;" horiz-adv-x="300" 
d="M-8 -271l26 62q70 -24 109 -24q67 0 67 48q0 23 -16.5 35.5t-38.5 12.5q-32 0 -55 -9l-29 23l76 123h74l-54 -82q24 5 43 5q50 0 86 -25q40 -28 40 -75q0 -65 -55 -99q-46 -29 -116 -29q-57 0 -157 34z" />
    <glyph glyph-name="onesuperior" unicode="&#xb9;" horiz-adv-x="578" 
d="M332 293v311l-174 -103l-65 103l199 120h190v-431h-150z" />
    <glyph glyph-name="ordmasculine" unicode="&#xba;" horiz-adv-x="495" 
d="M409 569q0 -66 -41 -113q-48 -55 -136 -55t-136 55q-41 47 -41 113t41 113q48 55 136 55t136 -55q41 -47 41 -113zM311 569q0 41 -21 68.5t-58 27.5t-58 -27.5t-21 -68.5t21 -67q21 -29 58 -29t59 29q20 26 20 67zM82 356h300v-80h-300v80z" />
    <glyph glyph-name="guillemotright" unicode="&#xbb;" horiz-adv-x="542" 
d="M389 280l-100 88v116l167 -144v-120l-167 -144v116zM176 280l-100 88v116l167 -144v-120l-167 -144v116z" />
    <glyph glyph-name="onequarter" unicode="&#xbc;" horiz-adv-x="1380" 
d="M752 77v165l337 189h166v-240h69v-114h-69v-77h-156v77h-347zM1099 191v120l-215 -118v-2h215zM292 -8l568 740h122l-564 -740h-126zM289 293v311l-174 -103l-65 103l199 120h190v-431h-150z" />
    <glyph glyph-name="onehalf" unicode="&#xbd;" horiz-adv-x="1377" 
d="M293 -8l568 740h122l-564 -740h-126zM290 293v311l-174 -103l-65 103l199 120h190v-431h-150zM773 0v147q0 85 131 94l146 10q81 5 96.5 10t15.5 26q0 35 -32 42q-7 2 -64 2h-57q-41 0 -56 -7q-24 -10 -24 -47v-3h-156v51q0 63 43 88.5t141 25.5h190q99 0 137 -30
q34 -28 34 -98q0 -96 -31 -124t-143 -34l-149 -8q-24 -1 -36 -4q-24 -4 -30 -16q-4 -6 -4 -17h400v-108h-552z" />
    <glyph glyph-name="threequarters" unicode="&#xbe;" horiz-adv-x="1419" 
d="M396 -8l568 740h122l-564 -740h-126zM51 399v46h156q0 -35 15 -45q10 -7 48 -7h129q32 0 42 9q8 6 8 26q0 29 -52 29h-126v102h113q55 0 55 27q0 38 -65 38h-103q-33 0 -44 -7q-17 -9 -17 -39h-156v24q0 84 53 109q44 21 186 21h95q125 0 166 -24t41 -97q0 -53 -14 -70
t-64 -31v-2q56 -8 72 -28.5t16 -74.5q0 -67 -32 -92q-35 -28 -131 -28h-237q-154 0 -154 114zM791 77v165l337 189h166v-240h69v-114h-69v-77h-156v77h-347zM1138 311l-215 -118v-2h215v120z" />
    <glyph glyph-name="questiondown" unicode="&#xbf;" horiz-adv-x="576" 
d="M218 324h132q0 -77 -16 -113q-20 -44 -86 -90q-62 -44 -62 -99q0 -53 33 -79q25 -20 64 -20q96 0 108 115v1h141q0 -120 -79 -182q-65 -52 -161 -52q-86 0 -151 33q-105 54 -105 180q0 57 32 102q26 37 89 82q35 25 47 46q14 25 14 76zM208 391v141h146v-141h-146z" />
    <glyph glyph-name="Agrave" unicode="&#xc0;" horiz-adv-x="1241" 
d="M1185 0h-223q-31 65 -60 117q-13 23 -53 23h-476q-41 0 -53 -23q-8 -13 -61 -117h-223l398 729h352zM810 292q0 11 -10 29l-131 262q-16 32 -30 32h-57q-13 0 -29 -32l-130 -261q-9 -18 -9 -29q0 -28 37 -28h322q37 0 37 27zM734 770l-128 198h-243l212 -198h159z" />
    <glyph glyph-name="Aacute" unicode="&#xc1;" horiz-adv-x="1241" 
d="M1185 0h-223q-31 65 -60 117q-13 23 -53 23h-476q-41 0 -53 -23q-8 -13 -61 -117h-223l398 729h352zM810 292q0 11 -10 29l-131 262q-16 32 -30 32h-57q-13 0 -29 -32l-130 -261q-9 -18 -9 -29q0 -28 37 -28h322q37 0 37 27zM416 780l128 198h243l-212 -198h-159z" />
    <glyph glyph-name="Acircumflex" unicode="&#xc2;" horiz-adv-x="1241" 
d="M1185 0h-223q-31 65 -60 117q-13 23 -53 23h-476q-41 0 -53 -23q-8 -13 -61 -117h-223l398 729h352zM810 292q0 11 -10 29l-131 262q-16 32 -30 32h-57q-13 0 -29 -32l-130 -261q-9 -18 -9 -29q0 -28 37 -28h322q37 0 37 27zM353 763l149 198h202l151 -198h-172l-80 108
l-81 -108h-169z" />
    <glyph glyph-name="Atilde" unicode="&#xc3;" horiz-adv-x="1241" 
d="M1185 0h-223q-31 65 -60 117q-13 23 -53 23h-476q-41 0 -53 -23q-8 -13 -61 -117h-223l398 729h352zM810 292q0 11 -10 29l-131 262q-16 32 -30 32h-57q-13 0 -29 -32l-130 -261q-9 -18 -9 -29q0 -28 37 -28h322q37 0 37 27zM398 773v0h-127q11 68 66 121q63 59 150 59
q46 0 140 -27.5t117 -27.5q29 0 51.5 16.5t26.5 38.5h127q-30 -169 -213 -169q-57 0 -144 24t-110 24q-33 0 -56 -17t-28 -42z" />
    <glyph glyph-name="Adieresis" unicode="&#xc4;" horiz-adv-x="1247" 
d="M1191 0h-223q-30 65 -60 117q-13 23 -53 23h-475q-42 0 -54 -23q-7 -13 -61 -117h-222l397 729h353zM816 292q0 11 -9 29l-132 262q-16 32 -30 32h-56q-14 0 -30 -32l-130 -261q-9 -18 -9 -29q0 -28 37 -28h322q37 0 37 27zM567 940v-132h-171v132h171zM834 940v-132
h-172v132h172z" />
    <glyph glyph-name="Aring" unicode="&#xc5;" horiz-adv-x="1242" 
d="M491 924q0 58 42 100t100 42q59 0 100.5 -42t41.5 -100q0 -59 -41.5 -100.5t-100.5 -41.5q-58 0 -100 41.5t-42 100.5zM569 924q0 -26 19 -45t45 -19q27 0 45.5 19t18.5 45t-18.5 45t-45.5 19q-26 0 -45 -19t-19 -45zM1186 0h-223q-31 65 -60 117q-13 23 -53 23h-476
q-41 0 -53 -23q-8 -13 -61 -117h-223l397 729h353zM811 292q0 11 -10 29l-131 262q-16 32 -30 32h-57q-13 0 -29 -32l-130 -261q-9 -18 -9 -29q0 -28 37 -28h322q37 0 37 27z" />
    <glyph glyph-name="AE" unicode="&#xc6;" horiz-adv-x="1055" 
d="M614 313v-186h378v-127h-525v153h-215l-52 -153h-157l262 718h680v-127h-371v-151h334v-127h-334zM291 271h176v320h-65z" />
    <glyph glyph-name="Ccedilla" unicode="&#xc7;" horiz-adv-x="1100" 
d="M370 -271l26 62q70 -24 109 -24q67 0 67 48q0 23 -16.5 35.5t-38.5 12.5q-32 0 -55 -9l-29 23l76 123h74l-54 -82q24 5 43 5q50 0 86 -25q40 -28 40 -75q0 -65 -55 -99q-46 -29 -116 -29q-57 0 -157 34zM1041 118q0 -49 -33 -83.5t-82 -34.5h-733q-50 0 -82.5 34
t-32.5 84v493q0 51 32.5 84.5t82.5 33.5h733q49 0 82 -34t33 -84v-67h-210q-8 61 -75 61h-394q-76 0 -76 -73v-334q0 -73 76 -73h394q32 0 52.5 18t22.5 48h210v-73z" />
    <glyph glyph-name="Egrave" unicode="&#xc8;" horiz-adv-x="978" 
d="M954 0h-855v729h855v-124h-582q-40 0 -54 -24q-10 -18 -10 -60q0 -47 9 -65q14 -27 55 -27h532v-123h-532q-40 0 -54 -24q-10 -17 -10 -59q0 -51 8 -69q13 -29 56 -29h582v-125zM586 783l-128 198h-243l212 -198h159z" />
    <glyph glyph-name="Eacute" unicode="&#xc9;" horiz-adv-x="1013" 
d="M938 0h-855v729h855v-124h-582q-39 0 -53 -24q-10 -18 -10 -60q0 -47 9 -65q13 -27 54 -27h533v-123h-533q-40 0 -54 -24q-9 -17 -9 -59q0 -51 8 -69q13 -29 55 -29h582v-125zM378 780l128 198h243l-212 -198h-159z" />
    <glyph glyph-name="Ecircumflex" unicode="&#xca;" horiz-adv-x="978" 
d="M953 0h-854v729h854v-124h-581q-40 0 -54 -24q-10 -18 -10 -60q0 -47 9 -65q13 -27 55 -27h532v-123h-532q-40 0 -54 -24q-10 -17 -10 -59q0 -51 8 -69q13 -29 56 -29h581v-125zM217 780l149 198h202l151 -198h-172l-80 108l-81 -108h-169z" />
    <glyph glyph-name="Edieresis" unicode="&#xcb;" horiz-adv-x="978" 
d="M954 0h-855v729h855v-124h-582q-40 0 -54 -24q-10 -18 -10 -60q0 -47 9 -65q14 -27 55 -27h532v-123h-532q-40 0 -54 -24q-10 -17 -10 -59q0 -51 8 -69q13 -29 56 -29h582v-125zM236 794v150h192v-150h-192zM508 794v150h192v-150h-192z" />
    <glyph glyph-name="Igrave" unicode="&#xcc;" horiz-adv-x="473" 
d="M374 0h-207v729h207v-729zM249 780l-212 198h243l128 -198h-159z" />
    <glyph glyph-name="Iacute" unicode="&#xcd;" horiz-adv-x="337" 
d="M241 0h-207v729h207v-729zM-23 780l128 198h243l-212 -198h-159z" />
    <glyph glyph-name="Icircumflex" unicode="&#xce;" horiz-adv-x="451" 
d="M356 0h-207v729h207v-729zM-35 780l149 198h202l151 -198h-172l-80 108l-81 -108h-169z" />
    <glyph glyph-name="Idieresis" unicode="&#xcf;" horiz-adv-x="452" 
d="M357 0h-207v729h207v-729zM-15 794v150h192v-150h-192zM257 794v150h192v-150h-192z" />
    <glyph glyph-name="Eth" unicode="&#xd0;" horiz-adv-x="1191" 
d="M131 0v328h-69v108h69v288h670q165 0 232.5 -58t67.5 -194v-220q0 -136 -67.5 -194t-232.5 -58h-670zM353 328v-142h394q73 0 102.5 27.5t29.5 102.5v98q0 75 -30 104q-29 26 -102 26h-394v-108h335v-108h-335z" />
    <glyph glyph-name="Ntilde" unicode="&#xd1;" horiz-adv-x="1266" 
d="M1181 0h-407l-384 558q-22 31 -33 31h-27q-25 0 -25 -30v-559h-201v729h404l388 -558q22 -31 37 -31h22q25 0 25 30v559h201v-729zM405 799v0h-128q11 69 66 121q63 59 150 59q46 0 140 -27.5t117 -27.5q29 0 51.5 16.5t26.5 38.5h127q-30 -169 -213 -169
q-57 0 -143.5 24t-110.5 24q-33 0 -56 -17t-27 -42z" />
    <glyph glyph-name="Ograve" unicode="&#xd2;" horiz-adv-x="1172" 
d="M1078 118q0 -49 -33 -83.5t-82 -34.5h-733q-50 0 -82.5 34t-32.5 84v493q0 51 32 84.5t83 33.5h733q49 0 82 -34t33 -84v-493zM869 198v334q0 73 -76 73h-394q-76 0 -76 -73v-334q0 -73 76 -73h394q34 0 55 20t21 53zM554 780l-212 198h243l128 -198h-159z" />
    <glyph glyph-name="Oacute" unicode="&#xd3;" horiz-adv-x="1172" 
d="M1078 118q0 -49 -33 -83.5t-82 -34.5h-733q-50 0 -82.5 34t-32.5 84v493q0 51 32 84.5t83 33.5h733q49 0 82 -34t33 -84v-493zM869 198v334q0 73 -76 73h-394q-76 0 -76 -73v-334q0 -73 76 -73h394q34 0 55 20t21 53zM465 780l128 198h243l-212 -198h-159z" />
    <glyph glyph-name="Ocircumflex" unicode="&#xd4;" horiz-adv-x="1172" 
d="M1078 118q0 -49 -33 -83.5t-82 -34.5h-733q-50 0 -82.5 34t-32.5 84v493q0 51 32.5 84.5t82.5 33.5h733q49 0 82 -34t33 -84v-493zM869 198v334q0 73 -76 73h-394q-76 0 -76 -73v-334q0 -73 76 -73h394q34 0 55 20t21 53zM338 780l149 198h202l151 -198h-172l-80 108
l-81 -108h-169z" />
    <glyph glyph-name="Otilde" unicode="&#xd5;" horiz-adv-x="1145" 
d="M1051 118q0 -49 -33 -83.5t-82 -34.5h-733q-50 0 -82.5 34t-32.5 84v493q0 51 32.5 84.5t82.5 33.5h733q49 0 82 -34t33 -84v-493zM842 198v334q0 73 -76 73h-394q-76 0 -76 -73v-334q0 -73 76 -73h394q34 0 55 20t21 53zM318 773v0h-127q11 68 66 121q62 59 149 59
q47 0 141 -27.5t117 -27.5q29 0 51 16.5t26 38.5h128q-30 -169 -213 -169q-57 0 -144 24t-111 24q-33 0 -56 -17t-27 -42z" />
    <glyph glyph-name="Odieresis" unicode="&#xd6;" horiz-adv-x="1172" 
d="M1078 118q0 -49 -33 -83.5t-82 -34.5h-733q-50 0 -82.5 34t-32.5 84v493q0 51 32.5 84.5t82.5 33.5h733q49 0 82 -34t33 -84v-493zM869 198v334q0 73 -76 73h-394q-76 0 -76 -73v-334q0 -73 76 -73h394q34 0 55 20t21 53zM337 794v150h192v-150h-192zM609 794v150h192
v-150h-192z" />
    <glyph glyph-name="multiply" unicode="&#xd7;" horiz-adv-x="620" 
d="M157 11l-94 94l149 148l-149 148l94 94l148 -149l148 149l94 -94l-149 -148l149 -148l-94 -94l-148 149z" />
    <glyph glyph-name="Oslash" unicode="&#xd8;" horiz-adv-x="859" 
d="M774 707l-84 -92q74 -96 74 -256q0 -219 -137 -315q-89 -63 -208 -63q-140 0 -232 82l-82 -90l-42 38l85 93q-74 95 -74 255q0 219 136 315q89 63 209 63q136 0 232 -81l81 89zM251 218l304 333q-54 59 -136 59q-77 0 -128 -50q-67 -66 -67 -201q0 -85 27 -141zM586 501
l-304 -333q53 -60 137 -60q76 0 127 50q68 66 68 201q0 89 -28 142z" />
    <glyph glyph-name="Ugrave" unicode="&#xd9;" horiz-adv-x="1189" 
d="M546 780l-212 198h243l128 -198h-159zM1095 118q0 -49 -33 -83.5t-83 -34.5h-788q-51 0 -83 33.5t-32 84.5v611h207v-531q0 -73 76 -73h451q34 0 55 20t21 53v531h209v-611z" />
    <glyph glyph-name="Uacute" unicode="&#xda;" horiz-adv-x="1249" 
d="M1155 118q0 -49 -33.5 -83.5t-82.5 -34.5h-788q-51 0 -83 33.5t-32 84.5v611h207v-531q0 -73 76 -73h451q34 0 55 20t21 53v531h209v-611zM458 780l128 198h243l-212 -198h-159z" />
    <glyph glyph-name="Ucircumflex" unicode="&#xdb;" horiz-adv-x="1249" 
d="M1155 118q0 -49 -33.5 -83.5t-82.5 -34.5h-788q-51 0 -83 33.5t-32 84.5v611h207v-531q0 -73 76 -73h451q34 0 55 20t21 53v531h209v-611zM341 780l149 198h202l151 -198h-172l-80 108l-81 -108h-169z" />
    <glyph glyph-name="Udieresis" unicode="&#xdc;" horiz-adv-x="1191" 
d="M1096 118q0 -49 -33 -83.5t-82 -34.5h-789q-51 0 -83 33.5t-32 84.5v611h207v-531q0 -73 76 -73h452q33 0 54 20t21 53v531h209v-611zM360 794v150h192v-150h-192zM632 794v150h192v-150h-192z" />
    <glyph glyph-name="Yacute" unicode="&#xdd;" horiz-adv-x="954" 
d="M1032 729q-4 -9 -177 -204q-96 -109 -193 -217q-38 -45 -38 -92v-216h-201v218q0 36 -6 52.5t-22 33.5l-389 424h259l205 -259q24 -30 52 -30q37 0 60 30l201 260h249zM599 995l-147 -146h-101l94 146h154z" />
    <glyph glyph-name="Thorn" unicode="&#xde;" horiz-adv-x="976" 
d="M47 0v724h222v-63h383q148 0 210 -71q52 -58 52 -177v-62q0 -95 -43 -156q-53 -76 -161 -76h-441v-119h-222zM269 481v-182h345q72 0 72 77v28q0 77 -91 77h-326z" />
    <glyph glyph-name="germandbls" unicode="&#xdf;" horiz-adv-x="817" 
d="M525 -8q-58 0 -161 6v118q78 -6 80 -6q125 0 125 90v54q0 47 -33 63q-29 14 -110 14h-62v106h70q99 0 99 81q0 48 -30 65q-21 11 -72 11h-68q-71 0 -95 -20t-24 -81v-493h-172v515q0 99 63 151q56 46 151 46h192q122 0 173 -44q48 -41 48 -132q0 -55 -17 -83t-62 -46v-17
q64 -11 92.5 -45t28.5 -99v-54q0 -104 -33 -144q-47 -56 -183 -56z" />
    <glyph glyph-name="agrave" unicode="&#xe0;" horiz-adv-x="1056" 
d="M993 0h-189q-27 55 -52 100q-10 19 -45 19h-404q-35 0 -45 -19q-7 -11 -52 -100h-189l337 620h300zM674 248q0 9 -8 25l-112 223q-14 27 -25 27h-48q-12 0 -25 -27l-111 -222q-8 -16 -8 -25q0 -24 32 -24h273q32 0 32 23zM451 667l-212 198h243l128 -198h-159z" />
    <glyph glyph-name="aacute" unicode="&#xe1;" horiz-adv-x="1052" 
d="M988 0h-189q-26 55 -51 100q-11 19 -45 19h-404q-36 0 -46 -19q-6 -11 -51 -100h-190l338 620h300zM669 248q0 9 -7 25l-113 223q-13 27 -25 27h-48q-12 0 -25 -27l-110 -222q-8 -16 -8 -25q0 -24 31 -24h274q31 0 31 23zM387 676l128 198h243l-212 -198h-159z" />
    <glyph glyph-name="acircumflex" unicode="&#xe2;" horiz-adv-x="1061" 
d="M995 0h-189q-27 55 -51 100q-11 19 -46 19h-404q-35 0 -45 -19q-7 -11 -52 -100h-189l337 620h300zM676 248q0 9 -8 25l-112 223q-13 27 -25 27h-48q-12 0 -25 -27l-111 -222q-7 -16 -7 -25q0 -24 31 -24h274q31 0 31 23zM257 655l149 198h202l151 -198h-172l-80 108
l-81 -108h-169z" />
    <glyph glyph-name="atilde" unicode="&#xe3;" horiz-adv-x="1055" 
d="M992 0h-189q-26 55 -51 100q-11 19 -45 19h-405q-35 0 -45 -19q-6 -11 -52 -100h-189l338 620h299zM673 248q0 9 -8 25l-112 223q-13 27 -25 27h-48q-12 0 -25 -27l-110 -222q-8 -16 -8 -25q0 -24 31 -24h274q31 0 31 23zM302 679v0h-127q11 69 66 121q63 59 150 59
q46 0 140 -27.5t117 -27.5q29 0 51.5 16.5t26.5 38.5h127q-30 -169 -213 -169q-57 0 -144 24t-110 24q-33 0 -56 -17t-28 -42z" />
    <glyph glyph-name="adieresis" unicode="&#xe4;" horiz-adv-x="1056" 
d="M992 0h-190q-26 55 -51 100q-11 19 -45 19h-404q-35 0 -45 -19q-7 -11 -52 -100h-189l337 620h300zM673 248q0 9 -8 25l-112 223q-14 27 -25 27h-48q-12 0 -26 -27l-110 -222q-8 -16 -8 -25q0 -24 32 -24h273q32 0 32 23zM273 669v150h192v-150h-192zM545 669v150h192
v-150h-192z" />
    <glyph glyph-name="aring" unicode="&#xe5;" horiz-adv-x="1052" 
d="M989 0h-190q-26 55 -51 100q-11 19 -45 19h-404q-36 0 -46 -19q-6 -11 -51 -100h-190l338 620h300zM670 248q0 9 -8 25l-112 223q-14 27 -26 27h-48q-11 0 -25 -27l-110 -222q-8 -16 -8 -25q0 -24 31 -24h274q32 0 32 23zM371 817q0 59 42 100.5t100 41.5
q59 0 100.5 -41.5t41.5 -100.5q0 -58 -41.5 -100t-100.5 -42q-58 0 -100 42t-42 100zM449 817q0 -26 19 -45t45 -19q27 0 45.5 19t18.5 45t-18.5 45t-45.5 19q-26 0 -45 -19t-19 -45z" />
    <glyph glyph-name="ae" unicode="&#xe6;" horiz-adv-x="948" 
d="M731 156h144q-25 -88 -96 -133q-59 -36 -138 -37q-85 -1 -137 28q-29 17 -62 58q-25 -40 -79 -63t-122 -23q-189 0 -189 163q0 129 135 152l131 22q48 8 60 17t12 35q0 59 -98 59q-84 0 -84 -75h-137q15 187 240 187q98 0 164 -59q35 27 59 38q43 20 97 21q100 1 165 -55
q85 -75 85 -238v-25h-365q6 -53 22 -80q30 -50 103 -50q31 0 56.5 15.5t33.5 42.5zM387 188v67q-21 -18 -104 -30q-48 -7 -66 -19q-25 -17 -25 -58q0 -62 79 -62q43 0 79.5 30.5t36.5 71.5zM520 319h217q-5 59 -40 88q-28 24 -68 24q-96 0 -109 -112z" />
    <glyph glyph-name="ccedilla" unicode="&#xe7;" horiz-adv-x="896" 
d="M889 100q0 -42 -28 -71t-70 -29h-622q-44 0 -71.5 28.5t-27.5 71.5v419q0 44 27.5 72.5t71.5 28.5h622q42 0 70 -29t28 -72v-56h-178q-7 51 -64 51h-335q-65 0 -65 -62v-283q0 -63 65 -63h335q59 0 64 56h178v-62zM238 -271l26 62q70 -24 109 -24q67 0 67 48
q0 23 -16.5 35.5t-38.5 12.5q-31 0 -55 -9l-29 23l76 123h74l-54 -82q24 5 43 5q50 0 86 -25q40 -28 40 -75q0 -65 -55 -99q-46 -29 -116 -29q-57 0 -157 34z" />
    <glyph glyph-name="egrave" unicode="&#xe8;" horiz-adv-x="832" 
d="M790 0h-727v620h727v-106h-495q-34 0 -46 -21q-8 -15 -8 -51q0 -41 7 -55q11 -22 47 -22h453v-105h-453q-34 0 -46 -21q-8 -14 -8 -50q0 -44 6 -58q11 -25 48 -25h495v-106zM511 665l-128 198h-243l212 -198h159z" />
    <glyph glyph-name="eacute" unicode="&#xe9;" horiz-adv-x="834" 
d="M792 0h-726v620h726v-106h-494q-34 0 -46 -21q-8 -15 -8 -51q0 -41 7 -55q11 -22 47 -22h452v-105h-452q-34 0 -46 -21q-8 -14 -8 -50q0 -44 6 -58q10 -25 48 -25h494v-106zM265 665l128 198h243l-212 -198h-159z" />
    <glyph glyph-name="ecircumflex" unicode="&#xea;" horiz-adv-x="841" 
d="M792 0h-726v620h726v-106h-494q-34 0 -46 -21q-8 -15 -8 -51q0 -41 7 -55q11 -22 47 -22h452v-105h-452q-34 0 -46 -21q-8 -14 -8 -50q0 -44 6 -58q10 -25 48 -25h494v-106zM136 673l149 198h202l151 -198h-172l-80 108l-81 -108h-169z" />
    <glyph glyph-name="edieresis" unicode="&#xeb;" horiz-adv-x="841" 
d="M792 0h-726v620h726v-106h-494q-34 0 -46 -21q-8 -15 -8 -51q0 -41 7 -55q11 -22 47 -22h452v-105h-452q-34 0 -46 -21q-8 -14 -8 -50q0 -44 6 -58q10 -25 48 -25h494v-106zM163 673v150h192v-150h-192zM435 673v150h192v-150h-192z" />
    <glyph glyph-name="igrave" unicode="&#xec;" horiz-adv-x="527" 
d="M436 0h-176v620h176v-620zM426 662l-128 198h-243l212 -198h159z" />
    <glyph glyph-name="iacute" unicode="&#xed;" horiz-adv-x="339" 
d="M214 0h-176v620h176v-620zM-8 662l128 198h243l-212 -198h-159z" />
    <glyph glyph-name="icircumflex" unicode="&#xee;" horiz-adv-x="475" 
d="M345 0h-176v620h176v-620zM7 669l149 198h202l151 -198h-172l-80 108l-81 -108h-169z" />
    <glyph glyph-name="idieresis" unicode="&#xef;" horiz-adv-x="571" 
d="M172 0v510h192v-510h-192zM40 609v150h192v-150h-192zM312 609v150h192v-150h-192z" />
    <glyph glyph-name="eth" unicode="&#xf0;" horiz-adv-x="856" 
d="M256 279v-48q0 -53 31 -74t100 -21h46q92 0 120 16t28 68v70q0 52 -28 68t-120 16h-46q-69 0 -100 -21t-31 -74zM296 537l-55 57l51 35v2q-48 3 -140 3l47 138q159 0 258 -24l100 71l55 -57l-61 -44q222 -95 222 -402v-122q0 -202 -211 -202h-287q-211 0 -211 202v122
q0 202 211 202h160q56 0 85 -9q37 -12 65 -47l2 2q-45 113 -184 149z" />
    <glyph glyph-name="ntilde" unicode="&#xf1;" horiz-adv-x="1085" 
d="M999 0h-346l-327 474q-19 27 -28 27h-23q-21 0 -21 -26v-475h-171v620h344l329 -475q19 -26 32 -26h19q21 0 21 26v475h171v-620zM310 689v0h-128q11 69 66 121q63 59 150 59q46 0 140 -27.5t117 -27.5q29 0 51.5 16.5t26.5 38.5h127q-30 -169 -213 -169q-57 0 -143.5 24
t-110.5 24q-33 0 -56 -17t-27 -42z" />
    <glyph glyph-name="ograve" unicode="&#xf2;" horiz-adv-x="989" 
d="M907 100q0 -42 -28 -71t-70 -29h-623q-43 0 -70.5 28.5t-27.5 71.5v419q0 44 27.5 72.5t70.5 28.5h623q42 0 70 -29t28 -72v-419zM729 169v283q0 62 -64 62h-336q-64 0 -64 -62v-283q0 -63 64 -63h336q28 0 46 17.5t18 45.5zM569 707l-128 198h-243l212 -198h159z" />
    <glyph glyph-name="oacute" unicode="&#xf3;" horiz-adv-x="988" 
d="M907 100q0 -42 -28.5 -71t-69.5 -29h-623q-43 0 -70.5 28.5t-27.5 71.5v419q0 44 27.5 72.5t70.5 28.5h623q42 0 70 -29t28 -72v-419zM729 169v283q0 62 -64 62h-336q-64 0 -64 -62v-283q0 -63 64 -63h336q28 0 46 17.5t18 45.5zM362 707l128 198h243l-212 -198h-159z
" />
    <glyph glyph-name="ocircumflex" unicode="&#xf4;" horiz-adv-x="984" 
d="M903 100q0 -42 -28 -71t-70 -29h-623q-43 0 -70.5 28.5t-27.5 71.5v419q0 44 27.5 72.5t70.5 28.5h623q42 0 70 -29t28 -72v-419zM725 169v283q0 62 -64 62h-336q-64 0 -64 -62v-283q0 -63 64 -63h336q28 0 46 17.5t18 45.5zM194 688l149 198h202l151 -198h-172l-80 108
l-81 -108h-169z" />
    <glyph glyph-name="otilde" unicode="&#xf5;" horiz-adv-x="982" 
d="M904 100q0 -42 -28 -71t-70 -29h-622q-43 0 -70.5 28.5t-27.5 71.5v419q0 44 27 72.5t71 28.5h622q42 0 70 -29t28 -72v-419zM727 169v283q0 62 -65 62h-335q-65 0 -65 -62v-283q0 -63 65 -63h335q29 0 47 17.5t18 45.5zM238 679v0h-127q11 69 66 121q62 59 149 59
q46 0 140.5 -27.5t117.5 -27.5q29 0 51 16.5t26 38.5h128q-30 -169 -213 -169q-58 0 -144.5 24t-110.5 24q-33 0 -56 -17t-27 -42z" />
    <glyph glyph-name="odieresis" unicode="&#xf6;" horiz-adv-x="986" 
d="M905 100q0 -42 -28 -71t-70 -29h-623q-43 0 -70.5 28.5t-27.5 71.5v419q0 44 27.5 72.5t70.5 28.5h623q42 0 70 -29t28 -72v-419zM727 169v283q0 62 -64 62h-336q-64 0 -64 -62v-283q0 -63 64 -63h336q28 0 46 17.5t18 45.5zM237 684v150h192v-150h-192zM509 684v150h192
v-150h-192z" />
    <glyph glyph-name="divide" unicode="&#xf7;" horiz-adv-x="623" 
d="M55 213v120h506v-120h-506zM215 480q0 38 27.5 65.5t65.5 27.5q39 0 66 -27.5t27 -65.5t-27 -65.5t-66 -27.5q-38 0 -65.5 27.5t-27.5 65.5zM215 66q0 38 27.5 65.5t65.5 27.5q39 0 66 -27.5t27 -65.5t-27 -65.5t-66 -27.5q-38 0 -65.5 27.5t-27.5 65.5z" />
    <glyph glyph-name="oslash" unicode="&#xf8;" horiz-adv-x="702" 
d="M457 351l-202 -213q30 -34 88 -34q128 0 128 162q0 52 -14 85zM230 179l203 214q-34 35 -90 35q-128 0 -128 -162q0 -51 15 -87zM626 528l-71 -74q60 -73 60 -188q0 -136 -83 -212q-74 -68 -189 -68q-106 0 -177 58l-69 -73l-38 29l73 77q-61 74 -61 189q0 136 82 212
q74 68 190 68q105 0 179 -59l69 73z" />
    <glyph glyph-name="ugrave" unicode="&#xf9;" horiz-adv-x="1022" 
d="M938 100q0 -42 -28 -71t-70 -29h-670q-44 0 -71 28.5t-27 71.5v520h176v-452q0 -62 64 -62h384q29 0 46.5 17t17.5 45v452h178v-520zM632 707l-128 198h-243l212 -198h159z" />
    <glyph glyph-name="uacute" unicode="&#xfa;" horiz-adv-x="1021" 
d="M938 100q0 -42 -28 -71t-70 -29h-671q-43 0 -70.5 28.5t-27.5 71.5v520h177v-452q0 -62 64 -62h384q29 0 46.5 17t17.5 45v452h178v-520zM361 697l128 198h243l-212 -198h-159z" />
    <glyph glyph-name="ucircumflex" unicode="&#xfb;" horiz-adv-x="1023" 
d="M939 100q0 -42 -28.5 -71t-69.5 -29h-671q-43 0 -70.5 28.5t-27.5 71.5v520h177v-452q0 -62 64 -62h384q28 0 46 17t18 45v452h178v-520zM237 688l149 198h202l151 -198h-172l-80 108l-81 -108h-169z" />
    <glyph glyph-name="udieresis" unicode="&#xfc;" horiz-adv-x="1016" 
d="M935 100q0 -42 -28 -71t-70 -29h-670q-43 0 -70.5 28.5t-27.5 71.5v520h176v-452q0 -62 65 -62h384q28 0 46 17t18 45v452h177v-520zM235 684v150h192v-150h-192zM507 684v150h192v-150h-192z" />
    <glyph glyph-name="yacute" unicode="&#xfd;" horiz-adv-x="909" 
d="M870 620q-145 -166 -314 -358q-33 -38 -33 -78v-184h-171v185q0 31 -5 45t-18 29l-331 360h220l174 -220q20 -26 44 -26q32 0 51 26l171 221h212zM430 810l-147 -146h-101l94 146h154z" />
    <glyph glyph-name="thorn" unicode="&#xfe;" horiz-adv-x="816" 
d="M249 280v-50q0 -55 29 -76q26 -18 87 -18h101q64 0 85 23q16 18 16 66v60q0 48 -16 66q-21 23 -85 23h-101q-61 0 -87 -18q-29 -21 -29 -76zM57 -178v902h192v-308h2q15 102 172 102h57q168 0 228 -60q45 -45 45 -157v-92q0 -112 -45 -157q-60 -60 -228 -60h-39
q-84 0 -121 18t-69 78h-2v-266h-192z" />
    <glyph glyph-name="ydieresis" unicode="&#xff;" horiz-adv-x="924" 
d="M883 620q-145 -166 -314 -358q-33 -38 -33 -78v-184h-171v185q0 31 -5 45t-18 29l-331 360h220l174 -220q20 -26 44 -26q31 0 51 26l171 221h212zM232 684v150h192v-150h-192zM504 684v150h192v-150h-192z" />
    <glyph glyph-name="dotlessi" unicode="&#x131;" horiz-adv-x="370" 
d="M82 0v510h192v-510h-192z" />
    <glyph glyph-name="Lslash" unicode="&#x141;" horiz-adv-x="831" 
d="M78 0v226l-55 -30v133l55 29v366h222v-248l178 94v-132l-178 -94v-158h500v-186h-722z" />
    <glyph glyph-name="lslash" unicode="&#x142;" horiz-adv-x="445" 
d="M116 0v262l-56 -30v114l56 30v348h192v-246l56 32v-116l-56 -30v-364h-192z" />
    <glyph glyph-name="OE" unicode="&#x152;" horiz-adv-x="1390" 
d="M53 254v216q0 150 85 211q72 51 234 51h146q158 0 193 -102h2v94h604v-168h-407v-116h394v-150h-394v-116h409v-174h-608v82h-2q-28 -51 -69 -70q-44 -20 -139 -20h-129q-162 0 -234 52q-85 60 -85 210zM269 445v-140q0 -81 27 -104t112 -23h141q85 0 112 23t27 104v140
q0 63 -27.5 82t-111.5 19h-141q-84 0 -111.5 -19t-27.5 -82z" />
    <glyph glyph-name="oe" unicode="&#x153;" horiz-adv-x="1205" 
d="M54 216v184q0 127 72 178q61 44 199 44h124q135 0 164 -86h2v79h514v-142h-346v-99h335v-127h-335v-99h347v-148h-517v70h-1q-24 -44 -60 -60.5t-117 -16.5h-110q-138 0 -199 44q-72 51 -72 179zM238 378v-119q0 -69 23 -88.5t95 -19.5h120q72 0 95 19.5t23 88.5v119
q0 54 -23.5 70t-94.5 16h-120q-72 0 -95 -16t-23 -70z" />
    <glyph glyph-name="Scaron" unicode="&#x160;" horiz-adv-x="1041" 
d="M999 118q0 -51 -32 -84.5t-83 -33.5h-691q-118 0 -116 150l1 26h205q0 -22 19 -41.5t41 -19.5l373 1q53 0 68 35q8 20 8 82q0 33 -21.5 53.5t-54.5 20.5h-531q-51 0 -83 34.5t-32 85.5v184q0 51 32 84.5t83 33.5h691q117 0 116 -150l-1 -26h-205q0 22 -19 41.5t-41 19.5
l-373 -1q-53 0 -68 -35q-8 -20 -8 -82q0 -33 21 -53t55 -20h531q50 0 82.5 -34t32.5 -84v-187zM492 780l-150 198h170l81 -106l81 106h170l-150 -198h-202z" />
    <glyph glyph-name="scaron" unicode="&#x161;" horiz-adv-x="925" 
d="M858 100q0 -43 -28.5 -71.5t-72.5 -28.5h-586q-99 0 -97 128v22h175q0 -19 16 -35.5t35 -16.5h317q44 0 57 31q7 16 7 69q0 28 -18 45.5t-46 17.5h-452q-43 0 -70.5 29.5t-27.5 72.5v157q0 43 27.5 71.5t70.5 28.5h588q99 0 98 -128v-22h-175q0 19 -16 35.5t-35 16.5
l-317 -1q-45 0 -57 -30q-7 -17 -7 -69q0 -28 17.5 -45t46.5 -17h452q42 0 70 -29t28 -71v-160zM357 595l-150 198h170l81 -106l81 106h170l-150 -198h-202z" />
    <glyph glyph-name="Ydieresis" unicode="&#x178;" horiz-adv-x="984" 
d="M307 774v150h192v-150h-192zM579 774v150h192v-150h-192zM1063 729q-4 -9 -177 -204q-97 -109 -193 -217q-39 -45 -39 -92v-216h-200v218q0 36 -6.5 52.5t-21.5 33.5l-389 424h258l205 -259q24 -30 52 -30q37 0 60 30l202 260h249z" />
    <glyph glyph-name="Zcaron" unicode="&#x17d;" horiz-adv-x="1017" 
d="M977 0h-882q-14 0 -24.5 10.5t-10.5 24.5v94q0 17 16 28l530 375q14 10 14 29q0 15 -11 25.5t-26 10.5h-523v132h882q15 0 25 -10.5t10 -24.5v-95q0 -17 -15 -28l-530 -375q-14 -10 -14 -29q0 -15 10.5 -25.5t25.5 -10.5h523v-131zM440 780l-150 198h170l81 -106l81 106
h170l-150 -198h-202z" />
    <glyph glyph-name="zcaron" unicode="&#x17e;" horiz-adv-x="876" 
d="M825 0h-750q-30 0 -30 30v80q0 14 14 23l450 319q12 8 12 25q0 31 -31 31l-445 -1v113l750 -1q30 0 30 -30v-80q0 -14 -13 -23l-451 -319q-12 -9 -12 -25q0 -31 31 -31h445v-111zM282 595l-150 198h170l81 -106l81 106h170l-150 -198h-202z" />
    <glyph glyph-name="florin" unicode="&#x192;" horiz-adv-x="629" 
d="M521 477v-97h-134l-59 -359q-38 -231 -191 -231q-35 0 -101 21l24 111q30 -17 54 -17q34 0 49 31q13 26 27 110l57 334h-122v97h137l19 87q38 173 178 173q48 0 103 -19l-24 -108q-28 15 -55 15q-56 0 -67 -60l-15 -88h120z" />
    <glyph glyph-name="circumflex" unicode="&#x2c6;" horiz-adv-x="651" 
d="M65 595l149 198h202l151 -198h-172l-80 108l-81 -108h-169z" />
    <glyph glyph-name="caron" unicode="&#x2c7;" horiz-adv-x="509" 
d="M146 595l-150 198h170l81 -106l81 106h170l-150 -198h-202z" />
    <glyph glyph-name="breve" unicode="&#x2d8;" horiz-adv-x="498" 
d="M31 797h96q14 -88 145 -88q49 0 83 20q40 24 44 68h96q-3 -99 -74 -153q-65 -49 -167 -49q-97 0 -158 52q-65 54 -65 150z" />
    <glyph glyph-name="dotaccent" unicode="&#x2d9;" horiz-adv-x="383" 
d="M93 609v150h192v-150h-192z" />
    <glyph glyph-name="ring" unicode="&#x2da;" horiz-adv-x="437" 
d="M63 737q0 59 41.5 100.5t100.5 41.5q58 0 100 -41.5t42 -100.5q0 -58 -42 -100t-100 -42q-59 0 -100.5 42t-41.5 100zM141 737q0 -26 18.5 -45t45.5 -19q26 0 45 19t19 45t-19 45t-45 19q-27 0 -45.5 -19t-18.5 -45z" />
    <glyph glyph-name="ogonek" unicode="&#x2db;" horiz-adv-x="372" 
d="M221 0h57q-131 -82 -131 -165q0 -68 74 -68q56 0 106 41l18 -41q-30 -30 -77 -50q-54 -22 -109 -22q-70 0 -106 34q-32 30 -32 79q0 55 47 105q54 56 153 87z" />
    <glyph glyph-name="tilde" unicode="&#x2dc;" horiz-adv-x="541" 
d="M135 599v0h-95q8 69 49 121q47 59 112 59q34 0 104 -27.5t88 -27.5q21 0 37.5 16.5t20.5 38.5h95q-23 -169 -159 -169q-43 0 -108 24t-82 24q-25 0 -42 -17t-20 -42z" />
    <glyph glyph-name="hungarumlaut" unicode="&#x2dd;" horiz-adv-x="565" 
d="M-36 595l128 198h243l-212 -198h-159zM234 595l128 198h243l-212 -198h-159z" />
    <glyph glyph-name="endash" unicode="&#x2013;" horiz-adv-x="581" 
d="M485 357v-100h-429v100h429z" />
    <glyph glyph-name="emdash" unicode="&#x2014;" horiz-adv-x="938" 
d="M842 362v-100h-810v100h810z" />
    <glyph glyph-name="quoteleft" unicode="&#x2018;" horiz-adv-x="323" 
d="M252 716l-112 -257h-82l113 257h81z" />
    <glyph glyph-name="quoteright" unicode="&#x2019;" horiz-adv-x="323" 
d="M252 716l-112 -257h-82l113 257h81z" />
    <glyph glyph-name="quotesinglbase" unicode="&#x201a;" horiz-adv-x="300" 
d="M84 -150v291h118v-291h-118z" />
    <glyph glyph-name="quotedblleft" unicode="&#x201c;" horiz-adv-x="468" 
d="M394 607l-111 -257h-82l112 257h81zM269 607l-111 -257h-82l112 257h81z" />
    <glyph glyph-name="quotedblright" unicode="&#x201d;" horiz-adv-x="468" 
d="M394 607l-111 -257h-82l112 257h81zM269 607l-111 -257h-82l112 257h81z" />
    <glyph glyph-name="quotedblbase" unicode="&#x201e;" horiz-adv-x="478" 
d="M262 -148v291h118v-291h-118zM82 -148v291h118v-291h-118z" />
    <glyph glyph-name="dagger" unicode="&#x2020;" horiz-adv-x="711" 
d="M267 0v402h-221v144h221v178h162v-178h221v-144h-221v-402h-162z" />
    <glyph glyph-name="daggerdbl" unicode="&#x2021;" horiz-adv-x="673" 
d="M250 0v137h-193v132h193v186h-193v132h193v137h162v-137h193v-132h-193v-186h193v-132h-193v-137h-162z" />
    <glyph glyph-name="bullet" unicode="&#x2022;" horiz-adv-x="603" 
d="M453 546q24 0 39.5 -16t15.5 -40v-234q0 -23 -15.5 -39.5t-39.5 -16.5h-347q-24 0 -39.5 16t-15.5 40v234q0 24 15.5 40t39.5 16h347z" />
    <glyph glyph-name="ellipsis" unicode="&#x2026;" horiz-adv-x="1008" 
d="M242 146v-146h-150v146h150zM575 146v-146h-150v146h150zM908 146v-146h-150v146h150z" />
    <glyph glyph-name="perthousand" unicode="&#x2030;" horiz-adv-x="1350" 
d="M12 491v100q0 87 45 116q37 25 140 25q102 0 140 -25q45 -29 45 -116v-100q0 -87 -45 -116q-38 -25 -140 -25q-103 0 -140 25q-45 29 -45 116zM120 592v-101q0 -34 13.5 -42.5t63.5 -8.5t63.5 8.5t13.5 42.5v101q0 34 -23 44q-14 6 -54 6t-54 -6q-23 -10 -23 -44z
M518 133v100q0 87 45 116q37 25 140 25q102 0 140 -25q45 -29 45 -116v-100q0 -87 -45 -116q-38 -25 -140 -25q-103 0 -140 25q-45 29 -45 116zM626 234v-101q0 -35 13 -42.5t64 -8.5q44 -1 55 4q22 9 22 47v101q0 34 -23 44q-14 6 -54 6t-54 -6q-23 -10 -23 -44zM957 135
v100q0 87 45 116q37 25 140 25q102 0 140 -25q45 -29 45 -116v-100q0 -87 -45 -116q-38 -25 -140 -25q-103 0 -140 25q-45 29 -45 116zM1065 234v-101q0 -34 13.5 -42.5t63.5 -8.5t63.5 8.5t13.5 42.5v101q0 34 -23 44q-14 6 -54 6t-54 -6q-23 -10 -23 -44zM287 -8l237 740
h89l-237 -740h-89z" />
    <glyph glyph-name="guilsinglleft" unicode="&#x2039;" horiz-adv-x="432" 
d="M178 77l-121 175l121 177h169l-120 -177l120 -175h-169z" />
    <glyph glyph-name="guilsinglright" unicode="&#x203a;" horiz-adv-x="443" 
d="M69 77l120 177l-120 175h169l121 -175l-121 -177h-169z" />
    <glyph glyph-name="fraction" unicode="&#x2044;" horiz-adv-x="616" 
d="M-50 -8l568 740h122l-564 -740h-126z" />
    <glyph glyph-name="trademark" unicode="&#x2122;" horiz-adv-x="982" 
d="M385 767h-96q-23 0 -23 -18v-179h-66v179q0 18 -21 18h-97v44h303v-44zM877 570h-65v185q0 10 -8 10h-9q-4 0 -11 -11l-107 -178q-2 -6 -9 -6h-42q-7 0 -10 6l-107 178q-6 11 -11 11h-9q-8 0 -8 -10v-185h-69v241h128l93 -145q4 -9 14 -9t14 9l92 145h124v-241z" />
    <glyph glyph-name="greaterequal" unicode="&#x2265;" 
 />
    <glyph glyph-name="lozenge" unicode="&#x25ca;" 
 />
    <glyph glyph-name="apple" unicode="&#xf000;" 
 />
    <glyph glyph-name="fi" unicode="&#xf001;" 
 />
    <glyph glyph-name="fl" unicode="&#xf002;" 
 />
    <glyph glyph-name="DEL" 
 />
    <glyph glyph-name="glyph236" 
 />
    </font>
</defs>
</svg>
