<?xml version="1.0" standalone="no"?>
<!DOCTYPE svg PUBLIC "-//W3C//DTD SVG 1.1//EN" "http://www.w3.org/Graphics/SVG/1.1/DTD/svg11.dtd" >
<svg xmlns="http://www.w3.org/2000/svg">
<metadata></metadata>
<defs>
<font id="federationregular" horiz-adv-x="671" >
<font-face units-per-em="2048" ascent="1638" descent="-410" />
<missing-glyph horiz-adv-x="1034" />
<glyph unicode="&#xd;" horiz-adv-x="1034" />
<glyph unicode=" "  horiz-adv-x="1034" />
<glyph unicode="&#x09;" horiz-adv-x="1034" />
<glyph unicode="&#xa0;" horiz-adv-x="1034" />
<glyph unicode="!" horiz-adv-x="534" d="M84 0l127 287h291l-123 -287h-295zM309 512l314 707h290l-309 -707h-295z" />
<glyph unicode="&#x22;" horiz-adv-x="290" d="M49 768l199 451h188l-198 -451h-189zM305 768l199 451h188l-198 -451h-189z" />
<glyph unicode="$" horiz-adv-x="921" d="M37 0l131 287h260q109 0 166 30.5t57 122.5q0 86 -173 155t-173 251q0 152 67.5 262.5t258.5 110.5h106l56 129h317l-57 -129h112l-116 -256h-265q-84 0 -115.5 -19.5t-31.5 -87.5q0 -55 178 -109.5t178 -254.5q0 -199 -130 -344.5t-349 -145.5l-55 -129h-314l52 127 h-160z" />
<glyph unicode="%" horiz-adv-x="1325" d="M76 676l6 31l194 440q12 31 41 52.5t72 21.5h293q31 0 55 -23q27 -18 21 -51l-197 -449q-6 -16 -20 -34l-29 -29q-29 -25 -72 -25h-315q-14 0 -33 17q-6 8 -16 49zM283 791q0 -37 22 -37h70q27 0 45 16t31 43l98 221l4 19q0 37 -21 39h-71q-25 0 -43 -13l-29 -43 l-100 -223zM358 0l535 1219h287l-539 -1219h-283zM776 66l6 30l195 441q12 25 39 51l28 16q16 6 41 6h297q31 0 54 -22q25 -18 18 -51l-197 -449q-12 -35 -42.5 -61.5t-77.5 -26.5h-316q-12 0 -28 16q-6 8 -17 50zM983 180q0 -37 23 -37h65q25 0 47 17q18 18 31 43l96 221 l4 18q0 37 -20 39h-68q-29 0 -47 -12l-29 -43l-96 -223z" />
<glyph unicode="&#x26;" horiz-adv-x="1486" d="M82 96l2 43l6 41l19 49l24 58l98 225q43 102 127 156q80 55 164 55l-37 27l-20 20q-12 16 -12 51q0 29 14 66l45 106q45 96 141.5 161t200.5 65h682l-121 -287h-497q-31 0 -59 -17.5t-28 -42.5q0 -12 9 -22l286 -205l54 123h290l-122 -281l180 -131l-119 -268l-184 131 q-37 -100 -144.5 -159.5t-244.5 -59.5h-678q-29 0 -60 25q-16 27 -16 71zM424 287l702 2l-532 383z" />
<glyph unicode="(" horiz-adv-x="829" d="M94 -100l2 53q0 16 15 53l14 57l27 60l481 1096q49 115 188.5 200.5t272.5 85.5h247l-122 -286h-99q-86 0 -166 -56q-70 -53 -108 -123l-379 -860q-16 -51 -21 -86q0 -43 21.5 -68.5t46.5 -25.5h166l-123 -287h-324q-55 0 -98 51q-18 25 -29.5 62t-11.5 74z" />
<glyph unicode=")" horiz-adv-x="952" d="M80 -287l129 287h149q70 0 131.5 53t90.5 121l385 877q16 39 16 73q0 45 -22.5 70t-75.5 25h-133l124 286h289q94 0 146.5 -42t52.5 -115l-6 -64q-6 -27 -37 -90l-526 -1194q-47 -111 -170 -199t-238 -88h-305z" />
<glyph unicode="+" horiz-adv-x="657" d="M84 512l117 256h172l82 195h346l-86 -195h155l-110 -256h-156l-104 -225h-342l100 225h-174z" />
<glyph unicode="," horiz-adv-x="503" d="M37 -174l180 176h-145l121 285h290l-121 -285l-167 -176h-158z" />
<glyph unicode="-" d="M86 481l125 287h661l-124 -287h-662z" />
<glyph unicode="." horiz-adv-x="509" d="M74 0l127 287h301l-133 -287h-295z" />
<glyph unicode="/" horiz-adv-x="681" d="M70 0l718 1219h336l-714 -1219h-340z" />
<glyph unicode="0" horiz-adv-x="1165" d="M35 197q0 47 20 90l299 676q43 104 170 180t238 76h493q84 0 141.5 -49.5t57.5 -122.5q0 -31 -18 -84l-301 -676q-49 -119 -175 -203t-245 -84h-494q-74 0 -133 57q-53 59 -53 140zM395 373q0 -37 29 -64q33 -23 70 -22h198q61 0 123 37q57 39 86 96l180 405q12 29 13 49 q0 37 -27 63t-70 26h-223q-66 0 -115 -41q-49 -37 -75 -103l-176 -399q-12 -25 -13 -47z" />
<glyph unicode="1" horiz-adv-x="534" d="M39 0l422 963h-219l116 256h334q53 0 92 -24t39 -62q0 -20 -10 -41l-479 -1092h-295z" />
<glyph unicode="2" horiz-adv-x="1155" d="M20 0l125 287h1018l-135 -287h-1008zM242 512q35 92 128 174t185 82h301q35 0 70 27q39 23 55 59l14 51q0 57 -73 58h-486l113 256h704q39 0 75 -24t36 -77q0 -39 -8 -61l-19 -49l-18 -45l-84 -195q-51 -113 -114.5 -184.5t-157.5 -71.5h-721z" />
<glyph unicode="3" horiz-adv-x="1099" d="M35 0l127 287h561q49 0 75.5 27.5t49.5 76.5l24 76q0 18 -12 30.5t-35 14.5h-321l395 256h231q61 0 91 -29q33 -27 32 -71q0 -16 -12 -54l-194 -440q-31 -74 -99.5 -124t-132.5 -50h-780zM459 963l114 256h1020l-393 -256h-741z" />
<glyph unicode="4" horiz-adv-x="1116" d="M51 512l201 451h293l-88 -195h299l194 451h295l-198 -451h292l-112 -256h-1176zM416 0l127 287h291l-127 -287h-291z" />
<glyph unicode="5" horiz-adv-x="1079" d="M23 0l137 287l575 2q39 0 64.5 28.5t50.5 79.5l20 64q0 23 -11 32t-50 19h-336q-68 0 -103.5 38t-35.5 97q0 47 31 121h731q66 0 104.5 -29.5t38.5 -83.5q0 -37 -18 -80l-191 -436l-14 -28l-21 -27l-57 -45q-74 -39 -123 -39h-792zM449 963l114 256h942l-110 -256h-946z " />
<glyph unicode="6" horiz-adv-x="987" d="M94 166l6 59q12 43 25 62l213 481h711q57 0 95 -25.5t38 -68.5q0 -25 -4 -33q0 -12 -13 -37l-200 -450q-25 -70 -84 -111q-55 -43 -144 -43h-499q-57 0 -103 45q-20 23 -28.5 49.5t-10.5 36.5t-2 35zM422 963q49 104 151.5 180t217.5 76h643l-115 -256h-897zM457 360 q0 -37 32 -57q33 -16 74 -16h76q35 0 74 24.5t58.5 73.5t25.5 82q0 45 -58 45h-227l-43 -102q-12 -29 -12 -50z" />
<glyph unicode="7" horiz-adv-x="835" d="M27 0l577 768h363l-576 -768h-364zM61 963l115 256h1131l-197 -256h-1049z" />
<glyph unicode="8" horiz-adv-x="1058" d="M53 98q0 37 15 72l118 266q41 94 107.5 148.5t138.5 66.5l-18 13l-25 26q-6 12 -16 58q0 35 20 81l76 175q35 82 98 157q53 57 146 58h571q31 0 68 -37q31 -37 30 -97q0 -37 -18 -86l-74 -163q-29 -61 -80 -119l-53 -39l-74 -27q37 -6 68 -30q25 -25 25 -68l-7 -55 l-24 -62l-115 -262q-31 -70 -93.5 -122t-131.5 -52h-127h-246h-285q-39 0 -66.5 25.5t-27.5 72.5zM481 358q0 -72 58 -71h141q27 0 65.5 30.5t53.5 69.5l14 66q0 61 -57 61h-156q-47 0 -90 -68l-21 -51zM676 821q0 -53 88 -53h82q68 0 103.5 18.5t54.5 53.5l16 55 q0 18 -16.5 38.5t-47.5 29.5h-131l-39 -7q-20 -8 -36 -22q-37 -25 -58 -66z" />
<glyph unicode="9" horiz-adv-x="1007" d="M-2 0l133 287h885l-55 -111l-33 -45l-45 -51q-78 -80 -174 -80h-711zM289 604q0 25 12 49l195 432q20 49 94 95q78 39 133 39h534q139 0 140 -86q0 -12 -13 -48l-262 -573h-731q-43 0 -72.5 24.5t-29.5 67.5zM684 823q0 -53 84 -53h184l45 98l9 43q0 51 -60 52h-100 l-43 -7l-47 -22q-43 -23 -62 -57z" />
<glyph unicode=":" horiz-adv-x="432" d="M27 0l127 287h280l-129 -287h-278zM248 512l114 256h287l-114 -256h-287z" />
<glyph unicode=";" horiz-adv-x="452" d="M-20 -174l180 176l-137 -2l129 287h282l-129 -287l-168 -174h-157zM250 512l115 256h284l-112 -256h-287z" />
<glyph unicode="=" horiz-adv-x="718" d="M51 205l127 287h633l-129 -287h-631zM272 707l115 256h631l-115 -256h-631z" />
<glyph unicode="?" horiz-adv-x="880" d="M37 0l125 287h291l-121 -287h-295zM168 963l111 256h882q92 0 92 -74q0 -31 -18 -80l-188 -430q-18 -49 -78 -88q-63 -35 -113 -35h-594l113 256h352q88 0 115 66l20 92q0 37 -47 37h-647z" />
<glyph unicode="A" horiz-adv-x="1185" d="M4 0l662 768h274l-414 -481h357l190 600q2 9 2 16q1 25 -25 41q-34 20 -67 19h-328l115 256h604q35 0 57.5 -22.5t22.5 -63.5q0 -25 -8 -48l-348 -1085h-1094z" />
<glyph unicode="B" horiz-adv-x="1003" d="M39 0l129 287h448q86 0 113 51l39 80l6 20l2 21q0 51 -39 51h-473l117 256l475 2q59 0 92 47l37 82l4 18q0 16 -17.5 28.5t-53.5 19.5h-453l117 256h651q43 0 81 -31t48 -76l-8 -27l-199 -444q-18 -39 -57 -57l-51 -11h-39q31 -25 51 -63l14 -35l6 -37q0 -37 -20 -84 l-115 -256q-25 -49 -69 -73.5t-117 -24.5h-719z" />
<glyph unicode="C" horiz-adv-x="856" d="M92 170l266 596h318l-213 -479h403l-123 -287h-575q-35 0 -72 18q-26 19 -26 59q0 42 22 93zM442 963l66 149q27 45 74 76t131 31h565l-111 -256h-725z" />
<glyph unicode="D" horiz-adv-x="1089" d="M12 0l342 768h318l-213 -481h223q51 0 80 23.5t55 84.5l199 451q12 29 12 49q0 68 -151 68h-439l115 256h817q74 0 74 -86q0 -27 -19 -82l-391 -887q-31 -70 -95.5 -117t-160.5 -47h-766z" />
<glyph unicode="E" horiz-adv-x="860" d="M10 0l342 768h727l-110 -256h-412l-100 -225h409l-123 -287h-733zM436 963l115 256h727l-111 -256h-731z" />
<glyph unicode="F" horiz-adv-x="866" d="M10 0l342 768h727l-110 -256h-412l-225 -512h-322zM436 963l115 256h727l-111 -256h-731z" />
<glyph unicode="G" horiz-adv-x="1038" d="M53 205l248 561h320l-175 -391l-8 -35q0 -16 19 -39q25 -14 57 -14h137q31 0 56 18l22 25l21 28l34 72l9 31q0 12 -13 35l-22 16h-80l115 256h456l-274 -625q-20 -51 -84 -102q-57 -41 -137 -41h-658q-73 0 -73 80q0 51 30 125zM389 963l51 118q31 72 74 105q29 18 49 24 l47 9h838l-115 -256h-944z" />
<glyph unicode="H" horiz-adv-x="1003" d="M10 0l541 1219h317l-200 -451h569l-117 -256h-563l-227 -516z" />
<glyph unicode="I" horiz-adv-x="514" d="M33 0l540 1219h318l-537 -1219h-321z" />
<glyph unicode="J" horiz-adv-x="866" d="M10 0l129 287h365q35 0 63.5 18.5t48.5 59.5l379 854h283l-477 -1086q-29 -68 -72 -100q-53 -33 -119 -33h-600z" />
<glyph unicode="K" horiz-adv-x="1380" d="M10 0l342 768h316q143 0 220 -51t150 -205l242 -512h-319l-162 348l-60 121q-29 43 -67 43h-115l-225 -512h-322zM436 963l115 256h317l-53 -123q55 55 185 99t298 44l103 -2h39l45 -4l76 -14l-267 -256h-858z" />
<glyph unicode="L" horiz-adv-x="839" d="M10 0l541 1219h317l-411 -932h409l-123 -287h-733z" />
<glyph unicode="M" horiz-adv-x="1644" d="M12 0l342 768h318l-338 -768h-322zM438 963l115 256h526q86 0 131 -22.5t45 -59.5l-6 -25q49 72 85 89.5t87 17.5h398q66 0 105.5 -32t39.5 -104v-39l-10 -40q0 -14 -10 -35l-23 -56l-397 -913h-318l381 866l10 41q0 55 -120 56h-127l-426 -963h-318l391 887l9 35 q0 41 -146 41h-422z" />
<glyph unicode="N" horiz-adv-x="1085" d="M12 0l342 768h318l-338 -768h-322zM438 963l115 256h725q59 0 99 -32t40 -100l-2 -38q0 -23 -10 -50q-4 -20 -10 -35.5t-25 -56.5l-399 -907h-320l381 860l10 43q0 59 -114 60h-144h-346z" />
<glyph unicode="O" horiz-adv-x="1048" d="M45 133q0 16 12 57l256 578h320l-162 -365l-8 -36q0 -33 14 -56q16 -18 33 -24h131q47 0 85 29.5t69 89.5l161 362h318l-262 -594q-31 -74 -94 -125q-55 -49 -144 -49h-633q-29 0 -65 39q-31 41 -31 94zM399 963l50 110q29 66 82 106t137 40h589q49 0 102.5 -35t53.5 -82 l-6 -31l-49 -108h-959z" />
<glyph unicode="P" horiz-adv-x="1007" d="M41 0l342 768h483q51 0 84 51l41 92q12 25 -12.5 36t-50.5 16h-461l115 256h706q43 0 78 -26t35 -67l-6 -30l-211 -465q-23 -55 -54 -86q-27 -33 -133 -33h-409l-226 -512h-321z" />
<glyph unicode="Q" horiz-adv-x="1232" d="M76 133q0 16 12 57l391 883q25 61 81 103.5t138 42.5h590q49 0 102.5 -35t53.5 -82l-6 -31l-348 -784h153l-133 -287h-305h-103h-530q-27 0 -63 39q-10 12 -19 29q-14 29 -14 65zM494 362q0 -27 10 -47q12 -16 35 -28h133q53 0 90 30.5t63 88.5l195 440l8 39q0 29 -8 48 t-33 30h-141q-49 0 -86 -31l-31 -35q-10 -10 -29 -47l-198 -447l-6 -20z" />
<glyph unicode="R" horiz-adv-x="1038" d="M41 0l342 768h483q51 0 84 51l41 92q12 25 -12.5 36t-50.5 16h-461l115 256h706q43 0 78 -26t35 -67l-6 -30l-211 -465q-25 -61 -80 -92q-4 -2 -37 -14.5t-53 -12.5q18 -10 38.5 -35.5t20.5 -60.5q0 -33 -14 -62l-162 -354h-319l202 446l4 19q0 16 -12 28.5t-35 18.5 h-149l-226 -512h-321z" />
<glyph unicode="S" horiz-adv-x="1105" d="M25 0l133 287h428q98 0 166 30q57 33 57 123q0 86 -173 154t-173 252q0 160 69.5 266.5t255.5 106.5h527l-111 -256h-264q-80 0 -112.5 -19.5t-32.5 -87.5q0 -55 177 -109.5t177 -254.5q0 -201 -142.5 -346.5t-365.5 -145.5h-616z" />
<glyph unicode="T" horiz-adv-x="911" d="M215 0l342 768h315l-335 -768h-322zM434 963l117 256h764l-111 -256h-770z" />
<glyph unicode="U" horiz-adv-x="972" d="M74 133q0 16 12 57l459 1029h317l-362 -816l-15 -61q0 -31 17 -45l41 -10h35q51 0 82.5 23.5t68.5 95.5l361 813h321l-463 -1045q-37 -74 -93 -124t-148 -50h-537q-27 0 -64 39q-10 12 -18 29q-14 29 -14 65z" />
<glyph unicode="V" horiz-adv-x="1075" d="M119 0l385 1219h309l-211 -662l569 662h379l-1048 -1219h-383z" />
<glyph unicode="W" horiz-adv-x="1775" d="M117 0l385 1219h309l-211 -662l569 662h379l-280 -652l565 652h383l-1053 -1219h-383l166 514l-446 -514h-383z" />
<glyph unicode="X" horiz-adv-x="1284" d="M33 0l125 287h86q37 0 98 24q51 25 76 54l325 311l-143 543h301l82 -310l248 242q25 25 69 45q20 10 43 16.5t48 6.5h276l-113 -256h-43q-25 0 -58.5 -18.5t-63.5 -45.5l-322 -311l154 -588h-306l-90 354l-256 -245l-59 -48l-55 -36q-49 -25 -119 -25h-303z" />
<glyph unicode="Y" horiz-adv-x="1126" d="M289 604q0 35 20 82l240 533h317l-129 -308l-26 -57l-9 -45q0 -41 46 -41l178 2q51 0 94 37t74 104l131 308h317l-258 -594q-18 -41 -98 -82q-80 -31 -178 -31h-549q-76 0 -123 18.5t-47 73.5zM330 0l125 287h366l-125 -287h-366z" />
<glyph unicode="Z" horiz-adv-x="1085" d="M14 0l707 768h391l-438 -481h428l-125 -287h-963zM438 963l115 256h971l-234 -256h-852z" />
<glyph unicode="\" horiz-adv-x="1142" d="M27 1219h340l714 -1219h-333z" />
<glyph unicode="a" horiz-adv-x="1185" d="M4 0l662 768h274l-414 -481h357l190 600q2 9 2 16q1 25 -25 41q-34 20 -67 19h-328l115 256h604q35 0 57.5 -22.5t22.5 -63.5q0 -25 -8 -48l-348 -1085h-1094z" />
<glyph unicode="b" horiz-adv-x="1003" d="M39 0l543 1219h651q45 0 88 -36t43 -75q0 -12 -8 -27l-195 -446q-6 -23 -49 -47q-43 -14 -104 -15l51 -55q22 -26 22 -70q0 -35 -18 -83l-117 -267q-25 -49 -68.5 -73.5t-119.5 -24.5h-719zM485 287h131q80 0 115 49l41 84l8 37q0 53 -43 53h-151zM696 766h144l65 6 q33 6 51 47l35 92q2 7 2 12q0 16 -13 24q-17 11 -52 16h-140z" />
<glyph unicode="c" horiz-adv-x="870" d="M92 170l416 942q27 45 74 76t131 31h565l-111 -256h-403l-301 -676h403l-123 -287h-575q-35 0 -72 18q-26 19 -26 59q0 42 22 93z" />
<glyph unicode="d" horiz-adv-x="1075" d="M12 0l541 1219h817q74 0 74 -86q0 -27 -19 -82l-391 -887q-31 -70 -95.5 -117t-160.5 -47h-766zM459 287h223q51 0 80 23.5t55 84.5l199 451q12 29 12 49q0 68 -151 68h-119z" />
<glyph unicode="e" horiz-adv-x="966" d="M14 0l539 1219h819l-115 -256h-497l-107 -236h504l-115 -256h-499l-84 -184h504l-129 -287h-820z" />
<glyph unicode="f" horiz-adv-x="966" d="M10 0l541 1219h727l-111 -256h-409l-90 -195h411l-110 -256h-412l-225 -512h-322z" />
<glyph unicode="g" horiz-adv-x="1038" d="M53 205l387 876q31 72 74 105q29 18 49 24l47 9h838l-115 -256h-493q-43 0 -63.5 -4.5t-50.5 -19.5t-60 -73l-220 -491l-8 -35q0 -16 19 -39q25 -14 57 -14h137q31 0 56 18l22 25l21 28l34 72l9 31q0 12 -13 35l-22 16h-80l115 256h456l-274 -625q-20 -51 -84 -102 q-57 -41 -137 -41h-658q-73 0 -73 80q0 51 30 125z" />
<glyph unicode="h" horiz-adv-x="1099" d="M14 0l539 1219h317l-198 -451h323l199 451h317l-536 -1219h-320l226 512h-320l-227 -512h-320z" />
<glyph unicode="i" horiz-adv-x="514" d="M33 0l540 1219h318l-537 -1219h-321z" />
<glyph unicode="j" horiz-adv-x="866" d="M10 0l129 287h365q35 0 63.5 18.5t48.5 59.5l379 854h283l-477 -1086q-29 -68 -72 -100q-53 -33 -119 -33h-600z" />
<glyph unicode="k" horiz-adv-x="1136" d="M39 0l539 1219h317l-199 -451l396 451h383l-564 -654l170 -565h-303l-170 565l-24 -53l-226 -512h-319z" />
<glyph unicode="l" horiz-adv-x="839" d="M10 0l541 1219h317l-411 -932h409l-123 -287h-733z" />
<glyph unicode="m" horiz-adv-x="1640" d="M12 0l541 1219h526q86 0 131 -22.5t45 -59.5l-6 -25q49 72 85 89.5t87 17.5h398q66 0 105.5 -32t39.5 -104v-39l-10 -40q0 -14 -10 -35l-23 -56l-397 -913h-318l381 866l10 41q0 55 -120 56h-127l-426 -963h-318l391 887l9 35q0 41 -146 41h-100l-426 -963h-322z" />
<glyph unicode="n" horiz-adv-x="1085" d="M12 0l541 1219h725q59 0 99 -32t40 -100l-2 -38q0 -23 -10 -50q-4 -20 -10 -35.5t-25 -56.5l-399 -907h-320l381 860l10 43q0 59 -114 60h-168l-426 -963h-322z" />
<glyph unicode="o" horiz-adv-x="1064" d="M55 133q0 16 13 57l391 883q25 66 82 105q53 41 137 41h590q49 0 102 -35t53 -82l-6 -31l-395 -897q-31 -74 -94 -125q-55 -49 -144 -49h-632q-25 0 -66 39q-31 41 -31 94zM473 362q0 -23 12.5 -45t28.5 -30h137q47 0 85 29.5t69 89.5l194 440l9 39q0 29 -8.5 48 t-32.5 30h-142q-47 0 -81.5 -30t-63.5 -83l-199 -447l-6 -20z" />
<glyph unicode="p" horiz-adv-x="1007" d="M41 0l342 768h483q51 0 84 51l41 92q12 25 -12.5 36t-50.5 16h-461l115 256h706q43 0 78 -26t35 -67l-6 -30l-211 -465q-23 -55 -54 -86q-27 -33 -133 -33h-409l-226 -512h-321z" />
<glyph unicode="q" horiz-adv-x="1232" d="M76 133q0 16 12 57l391 883q25 61 81 103.5t138 42.5h590q49 0 102.5 -35t53.5 -82l-6 -31l-348 -784h153l-133 -287h-305h-103h-530q-27 0 -63 39q-10 12 -19 29q-14 29 -14 65zM494 362q0 -27 10 -47q12 -16 35 -28h133q53 0 90 30.5t63 88.5l195 440l8 39q0 29 -8 48 t-33 30h-141q-49 0 -86 -31l-31 -35q-10 -10 -29 -47l-198 -447l-6 -20z" />
<glyph unicode="r" horiz-adv-x="1038" d="M39 0l539 1219h696q29 0 78 -37q41 -37 41 -84q0 -20 -9 -37l-147 -334q-25 -57 -82 -102q-59 -35 -141 -35q31 0 65.5 -32t34.5 -81q0 -23 -8 -41l-193 -436h-315l176 399l8 33l9 35q0 43 -37 43h-170l-226 -510h-319zM694 766h166l51 6q20 6 39 27l45 102l6 21 q0 41 -67 41h-150z" />
<glyph unicode="s" horiz-adv-x="1075" d="M25 0l133 287h428q98 0 166 30q57 33 57 123q0 86 -173 154t-173 252q0 160 69.5 266.5t255.5 106.5h527l-111 -256h-264q-80 0 -112.5 -19.5t-32.5 -87.5q0 -55 177 -109.5t177 -254.5q0 -201 -142.5 -346.5t-365.5 -145.5h-616z" />
<glyph unicode="t" horiz-adv-x="1079" d="M317 0l422 963h-323l114 256h957l-111 -256h-319l-426 -963h-314z" />
<glyph unicode="u" horiz-adv-x="972" d="M74 133q0 16 12 57l459 1029h317l-362 -816l-15 -61q0 -31 17 -45l41 -10h35q51 0 82.5 23.5t68.5 95.5l361 813h321l-463 -1045q-37 -74 -93 -124t-148 -50h-537q-27 0 -64 39q-10 12 -18 29q-14 29 -14 65z" />
<glyph unicode="v" horiz-adv-x="1075" d="M119 0l385 1219h309l-211 -662l569 662h379l-1048 -1219h-383z" />
<glyph unicode="w" horiz-adv-x="1775" d="M117 0l385 1219h309l-211 -662l569 662h379l-280 -652l565 652h383l-1053 -1219h-383l166 514l-446 -514h-383z" />
<glyph unicode="x" horiz-adv-x="1284" d="M33 0l125 287h86q37 0 98 24q51 25 76 54l325 311l-143 543h301l82 -310l248 242q25 25 69 45q20 10 43 16.5t48 6.5h276l-113 -256h-43q-25 0 -58.5 -18.5t-63.5 -45.5l-322 -311l154 -588h-306l-90 354l-256 -245l-59 -48l-55 -36q-49 -25 -119 -25h-303z" />
<glyph unicode="y" horiz-adv-x="1126" d="M289 604q0 35 20 82l240 533h317l-137 -312l-22 -51l-7 -45q0 -43 48 -43l178 2q53 0 94 37t67 104l138 308h317l-258 -594q-18 -41 -98 -82q-80 -31 -178 -31h-93l-229 -512h-356l225 512h-96q-76 0 -123 18.5t-47 73.5z" />
<glyph unicode="z" horiz-adv-x="1085" d="M14 0l885 963h-461l115 256h971l-850 -932h428l-125 -287h-926h-37z" />
<glyph unicode="&#xa3;" horiz-adv-x="856" d="M10 0l226 512h-117l110 256h121l119 272q35 82 83 130.5t126 48.5h319l-114 -256h-125l-90 -195h131l-117 -256h-125l-100 -225h413l-127 -287h-733z" />
<glyph unicode="&#xad;" d="M86 481l125 287h661l-124 -287h-662z" />
<glyph unicode="&#xb1;" horiz-adv-x="1146" d="M90 39v139h967v-139h-967zM90 539v139h412v250h143v-250h412v-139h-412v-250h-143v250h-412z" />
<glyph unicode="&#xb5;" horiz-adv-x="1204" d="M154 -285l4 119l4 182l-2 207l-4 195v502h192v-607q0 -145 29 -194t102 -49q115 0 198 168t83 415v267h192v-672q0 -92 18.5 -135t59.5 -43t64.5 42t23.5 126v28h47l2 -18v-27q0 -106 -50 -172.5t-138 -66.5q-96 0 -158 86q-55 86 -55 266q-43 -178 -126 -265t-206 -87 q-88 0 -153 53q-55 55 -82 158l-2 -58q0 -76 13 -141.5t52 -149.5q66 -160 70 -186q0 -37 -24.5 -61.5t-65.5 -24.5q-43 0 -68 37q-20 41 -20 106z" />
<glyph unicode="&#xf7;" horiz-adv-x="1146" d="M88 414v139h969v-139h-969zM455 207q0 45 37.5 81t82.5 36q49 0 82 -33t33 -84q0 -49 -35 -82q-31 -35 -80 -35q-53 0 -88 35q-33 39 -32 82zM455 758q0 45 37.5 80.5t82.5 35.5t80 -37.5t35 -78.5q0 -49 -35 -82q-31 -35 -80 -35q-53 0 -88 33q-33 39 -32 84z" />
<glyph unicode="&#xfd;" horiz-adv-x="0" />
<glyph unicode="&#x2000;" horiz-adv-x="752" />
<glyph unicode="&#x2001;" horiz-adv-x="1505" />
<glyph unicode="&#x2002;" horiz-adv-x="752" />
<glyph unicode="&#x2003;" horiz-adv-x="1505" />
<glyph unicode="&#x2004;" horiz-adv-x="501" />
<glyph unicode="&#x2005;" horiz-adv-x="376" />
<glyph unicode="&#x2006;" horiz-adv-x="250" />
<glyph unicode="&#x2007;" horiz-adv-x="250" />
<glyph unicode="&#x2008;" horiz-adv-x="188" />
<glyph unicode="&#x2009;" horiz-adv-x="301" />
<glyph unicode="&#x200a;" horiz-adv-x="83" />
<glyph unicode="&#x2010;" d="M86 481l125 287h661l-124 -287h-662z" />
<glyph unicode="&#x2011;" d="M86 481l125 287h661l-124 -287h-662z" />
<glyph unicode="&#x2012;" d="M86 481l125 287h661l-124 -287h-662z" />
<glyph unicode="&#x2013;" horiz-adv-x="909" d="M86 481l163 287h861l-162 -287h-862z" />
<glyph unicode="&#x2014;" horiz-adv-x="1933" d="M86 481l326 287h1722l-323 -287h-1725z" />
<glyph unicode="&#x2018;" horiz-adv-x="81" d="M14 791l117 260l160 168h155l-178 -170l154 2l-115 -260h-293z" />
<glyph unicode="&#x2019;" horiz-adv-x="71" d="M61 788l179 177l-154 -2l115 256h293l-113 -256l-164 -175h-156z" />
<glyph unicode="&#x201c;" horiz-adv-x="489" d="M14 791l117 260l160 168h155l-178 -170l154 2l-115 -260h-293zM422 791l117 260l159 168h156l-178 -170l153 2l-114 -260h-293z" />
<glyph unicode="&#x201d;" horiz-adv-x="493" d="M61 788l179 177l-154 -2l115 256h293l-113 -256l-164 -175h-156zM469 788l178 177l-153 -2l114 256h293l-113 -256l-163 -175h-156z" />
<glyph unicode="&#x202f;" horiz-adv-x="301" />
<glyph unicode="&#x205f;" horiz-adv-x="376" />
<glyph unicode="&#xe000;" horiz-adv-x="1218" d="M0 0v1219h1219v-1219h-1219z" />
</font>
</defs>
</svg>
